img image001 image001 image001 image001 image001 image001 image001 image001 image001 image001 image001 image001 image001 image001 image001 image001

Planets Sun Sun Sun
Статистика раздачи
Автор: Nickolas3434 | Размер: 5.68 ГБ | Добавлен: 06 дек 2015
Раздают: 438    Качают: 89
Скачать торрент
Скачать торрент
Описание торрента

СообщениеДобавлено: 06 дек 2015 


Название: Ни минуты покоя
Оригинальное название: Une heure de tranquillité
Год выпуска: 2015
Жанр: Комедия
Выпущено: Франция, Canal+ [fr], CZ Productions
Режиссер: Патрис Леконт
В ролях: Кристиан Клавье, Кароль Буке, Валери Боннетон, Росси де Пальма, Стефан Де Гродт, Себастьен Кастро, Кристиан Шарметан, Арно Анриет, Рикардо Арсиага, Элиша Камачо
О фильме: У дантиста Мишеля Лепру — выходной. Поэтому он решил неспешно прогуляться по блошиному рынку, радуясь жизни. Но, раскопав в развалах древний (1958 года выпуска) виниловый диск с концертом кларнетиста Нила Юара, Мишель помчался домой, чтобы срочно послушать любимого музыканта. Но! Весь мир как будто сговорился лишить врача-меломана счастья. Жена потребовала серьезного разговора «о нас». В любовнице заговорила совесть, и она (любовница, а не совесть) решила во всем признаться жене Мишеля. Работяги-иммигранты устроили в квартире потоп. Взрослый сын в борьбе с буржуазными устоями привел на постой многочисленную филиппинскую семью. А Мишелю в этом бедламе нужно найти час, всего лишь час, чтобы послушать любимого музыканта…

Качество: BDRip 1080p
Видео: XviD, 8378 Кбит/с, 1920x800
Аудио: Русский (AC3, 6 ch, 384 Кбит/с), французский (DTS, 6 ch, 1510 Кбит/с)
Продолжительность: 01:19:10
Перевод: Дублированный [iTunes]
Семпл
General
Unique ID : 231410013005939396902481978918821623828 (0xAE17F28564A50D2881E17781626EF814)
Complete name : D:ВидеоHi.MyHuti.P0K0ja.2015.D.BDRip.1080p.mkv
Format : Matroska
Format version : Version 4 / Version 2
File size : 5.68 GiB
Duration : 1h 19mn
Overall bit rate : 10.3 Mbps
Encoded date : UTC 2015-12-05 19:13:58
Writing application : mkvmerge v8.3.0 ('Over the Horizon') 64bit
Writing library : libebml v1.3.1 + libmatroska v1.4.2
Video
ID : 1
Format : AVC
Format/Info : Advanced Video Codec
Format profile : High@L4.1
Format settings, CABAC : Yes
Format settings, ReFrames : 5 frames
Codec ID : V_MPEG4/ISO/AVC
Duration : 1h 19mn
Bit rate : 8 378 Kbps
Width : 1 920 pixels
Height : 800 pixels
Display aspect ratio : 2.40:1
Frame rate mode : Constant
Frame rate : 23.976 fps
Color space : YUV
Chroma subsampling : 4:2:0
Bit depth : 8 bits
Scan type : Progressive
Bits/(Pixel*Frame) : 0.227
Stream size : 4.52 GiB (80%)
Writing library : x264 core 146 r2538 121396c
Encoding settings : cabac=1 / ref=5 / deblock=1:1:1 / analyse=0x3:0x133 / me=umh / subme=7 / psy=1 / psy_rd=1.00:0.00 / mixed_ref=1 / me_range=16 / chroma_me=1 / trellis=1 / 8x8dct=1 / cqm=0 / deadzone=21,11 / fast_pskip=0 / chroma_qp_offset=-2 / threads=6 / lookahead_threads=1 / sliced_threads=0 / nr=0 / decimate=1 / interlaced=0 / bluray_compat=0 / constrained_intra=0 / bframes=3 / b_pyramid=2 / b_adapt=2 / b_bias=0 / direct=3 / weightb=1 / open_gop=0 / weightp=2 / keyint=240 / keyint_min=24 / scenecut=40 / intra_refresh=0 / rc_lookahead=50 / rc=2pass / mbtree=1 / bitrate=8378 / ratetol=1.0 / qcomp=0.60 / qpmin=0 / qpmax=69 / qpstep=4 / cplxblur=20.0 / qblur=0.5 / ip_ratio=1.40 / aq=1:1.00
Language : French
Default : Yes
Forced : No
Audio #1
ID : 2
Format : AC-3
Format/Info : Audio Coding 3
Mode extension : CM (complete main)
Format settings, Endianness : Big
Codec ID : A_AC3
Duration : 1h 19mn
Bit rate mode : Constant
Bit rate : 384 Kbps
Channel(s) : 6 channels
Channel positions : Front: L C R, Side: L R, LFE
Sampling rate : 48.0 KHz
Bit depth : 16 bits
Compression mode : Lossy
Stream size : 217 MiB (4%)
Language : Russian
Default : Yes
Forced : No
Audio #2
ID : 3
Format : DTS
Format/Info : Digital Theater Systems
Mode : 16
Format settings, Endianness : Big
Codec ID : A_DTS
Duration : 1h 19mn
Bit rate mode : Constant
Bit rate : 1 509 Kbps
Channel(s) : 6 channels
Channel positions : Front: L C R, Side: L R, LFE
Sampling rate : 48.0 KHz
Bit depth : 24 bits
Compression mode : Lossy
Stream size : 855 MiB (15%)
Title : Français / French
Language : French
Default : No
Forced : No
Menu
00:00:00.000 : en:00:00:00.000
00:06:10.996 : en:00:06:10.996
00:15:55.371 : en:00:15:55.371
00:23:16.895 : en:00:23:16.895
00:29:17.965 : en:00:29:17.965
00:35:36.176 : en:00:35:36.176
00:42:34.302 : en:00:42:34.302
00:48:07.635 : en:00:48:07.635
00:54:31.101 : en:00:54:31.101
00:59:04.750 : en:00:59:04.750
01:09:48.393 : en:01:09:48.393
01:15:42.580 : en:01:15:42.580



   Похожие торренты   Торрент   Размер 
В этой теме нет новых непрочитанных сообщений. Ни минуты покоя / Une heure de tranquillité (2014) BDRip 720p | iTunes

839 | 114

3.71 ГБ

В этой теме нет новых непрочитанных сообщений. Ни минуты покоя / Une heure de tranquillité (2014) HDRip | iTunes

1663 | 132

1.45 ГБ

В этой теме нет новых непрочитанных сообщений. Ни минуты покоя / Une heure de tranquillité (2014) HDRip-AVC | D

203 | 17

1.46 ГБ

В этой теме нет новых непрочитанных сообщений. Ни минуты покоя / Une heure de tranquillité (2014) HDRip от Шкипер

203 | 26

745.32 МБ

В этой теме нет новых непрочитанных сообщений. 22 минуты (2014) BDRip 1080p | Лицензия

182 | 25

8.11 ГБ

В этой теме нет новых непрочитанных сообщений. 22 минуты (2014) BDRip 1080p от MediaClub | Лицензия

522 | 52

7.03 ГБ

В этой теме нет новых непрочитанных сообщений. 22 минуты (2014) WEB-DLRip | iTunes

2243 | 89

1.37 ГБ




Вы не можете начинать темы
Вы не можете отвечать на сообщения
Вы не можете редактировать свои сообщения
Вы не можете удалять свои сообщения
Вы не можете добавлять вложения

Перейти:  
 Вход
ppkBB3cker v.2 © 2008-2014 @ PPK
[ Time : 0.037s | 17 Queries | GZIP : Off ]

cron