img image001 image001 image001 image001 image001 image001 image001 image001 image001 image001 image001 image001 image001 image001 image001 image001

Planets Sun Sun Sun
Статистика раздачи
Автор: Снежана | Размер: 744.44 МБ | Добавлен: 21 июл 2013
Раздают: 7    Качают: 9
Скачать торрент
Скачать торрент
Описание торрента

СообщениеДобавлено: 21 июл 2013 

#77

Название на русском: Ганнибал
Название в оригинале: Annibale / Hannibal

Страна: Италия
Жанр: Исторический, драма
Год выпуска: 1959
Продолжительность: 01:40:27
Перевод: Профессиональный (многоголосый, закадровый)
Субтитры: Нет

Режиссёр: Карло Людовико Брагэглия / Carlo Ludovico Bragaglia, Эдгар Дж. Улмер / Edgar G. Ulmer
В ролях: Виктор Мэтьюр , Габриэль Ферцетти , Рита Гэм , Мили Витале , Рик Бэттеглия, Теренс Хилл, Бад Спенсер

Описание фильма:
Сага о талантливом полководце Ганнибале, перешедшем со своей армией через Альпы, и железной волей сломившем и поставившем на колени великую Римскую империю.



Качество: DVDRip
Формат: AVI
Видео кодек: XviD
Аудио кодек: MP3
Видео: 640x496 (1.29:1), 25 fps, XviD MPEG-4 ~898 kbps avg, 0.11 bit/pixel
Аудио: 48 kHz, MPEG Layer 3, 2 ch, ~128.00 kbps avg













Format : AVI
Format/Info : Audio Video Interleave
File size : 744 MiB
Duration : 1h 40mn
Overall bit rate : 1 036 Kbps
Writing application : VirtualDubMod 1.5.10.2 (build 2540/release)
Writing library : VirtualDubMod build 2540/release

Video
ID : 0
Format : MPEG-4 Visual
Format profile : Advanced Simple@L5
Format settings, BVOP : 2
Format settings, QPel : No
Format settings, GMC : No warppoints
Format settings, Matrix : Custom
Muxing mode : Packed bitstream
Codec ID : XVID
Codec ID/Hint : XviD
Duration : 1h 40mn
Bit rate : 898 Kbps
Width : 640 pixels
Height : 496 pixels
Display aspect ratio : 1.290
Frame rate : 25.000 fps
Color space : YUV
Chroma subsampling : 4:2:0
Bit depth : 8 bits
Scan type : Progressive
Compression mode : Lossy
Bits/(Pixel*Frame) : 0.113
Stream size : 646 MiB (87%)
Writing library : XviD 1.2.1 (UTC 2008-12-04)

Audio
ID : 1
Format : MPEG Audio
Format version : Version 1
Format profile : Layer 3
Mode : Joint stereo
Mode extension : MS Stereo
Codec ID : 55
Codec ID/Hint : MP3
Duration : 1h 40mn
Bit rate mode : Constant
Bit rate : 128 Kbps
Channel(s) : 2 channels
Sampling rate : 48.0 KHz
Compression mode : Lossy
Stream size : 92.0 MiB (12%)
Alignment : Aligned on interleaves
Interleave, duration : 40 ms (1.00 video frame)
Interleave, preload duration : 504 ms

Релиз от: bm11



   Похожие торренты   Торрент   Размер 
В этой теме нет новых непрочитанных сообщений. Ганнибал / Annibale / Hannibal (1959) DVDRip от SergV

32 | 7

1.46 ГБ

В этой теме нет новых непрочитанных сообщений. Ганнибал: восхождение / Hannibal Rising (2007) DVDRip l КПК

2 | 2

259.48 МБ

В этой теме нет новых непрочитанных сообщений. Ганнибал-легендарный полководец / Hannibal - Rome's worst nightmare (2006) DVDRip

201 | 13

2.05 ГБ

В этой теме нет новых непрочитанных сообщений. BBC: Ганнибал - легендарный полководец / Hannibal - Rome's Worst Nightmare [01-02 из 02] (2005) DVDRip от ExKinoRay

35 | 7

2.06 ГБ

В этой теме нет новых непрочитанных сообщений. OST - Ганнибал / Hannibal [S01-03] (2014-2015) MP3

5 | 5

1.08 ГБ

В этой теме нет новых непрочитанных сообщений. Ганнибал / Hannibal (2001) BDRip-AVC от MediaClub | D, P, P2, A

98 | 18

4.79 ГБ

В этой теме нет новых непрочитанных сообщений. Ганнибал / Hannibal [S03] (2015) WEB-DLRip | BaibaKo

281 | 349

8.88 ГБ




Вы не можете начинать темы
Вы не можете отвечать на сообщения
Вы не можете редактировать свои сообщения
Вы не можете удалять свои сообщения
Вы не можете добавлять вложения

Перейти:  
 Вход
ppkBB3cker v.2 © 2008-2014 @ PPK
[ Time : 0.048s | 18 Queries | GZIP : Off ]

cron