img image001 image001 image001 image001 image001 image001 image001 image001 image001 image001 image001 image001 image001 image001 image001 image001

Planets Sun Sun Sun
Статистика раздачи
Автор: Nickolas3434 | Размер: 8.07 ГБ | Добавлен: 05 апр 2016
Раздают: 30    Качают: 83
Скачать торрент
Скачать торрент
Описание торрента

СообщениеДобавлено: 05 апр 2016 

Название: Куклы
Оригинальное название: Dolls
Год выхода: 1987
Страна: США, Италия
Студия: Empire Pictures, Taryn Productions Inc.
Продолжительность: 01:17:36
Жанр: ужасы, фэнтези, ...
Режиссер: Стюарт Гордон
В ролях: Йен Патрик Уильямс, Кэролин Пёрди-Гордон, Кэрри Лоррэйн, Гай Рольф, Хилари Мейсон, Банти Бэйли, Кэсси Стюарт, Стивен Ли, ...
Перевод:
Профессиональный (двуголосый, закадровый) НТВ+
Профессиональный (двуголосый, закадровый) НТВ
Авторский (одноголосый, закадровый) Санаев Павел Владимирович
О фильме: Застигнутые ненастьем путешественники попадают в усадьбу в лесу, где проживает странная пожилая пара. Созданные этими супругами куклы обладают способностью оживать и даже убивать тех, кто им не нравится…

Кодек: x264
Качество: BDRip 1080p
Видео: 1920x1040, 14000 kbps, 23,976 fps
Аудио #1: AC-3, 2 ch, 192 kbps (Rus) - DVO НТВ+
Аудио #2: AC-3, 2 ch, 192 kbps (Rus) - DVO НТВ
Аудио #3: AC-3, 2 ch, 192 kbps (Rus) - AVO Санаев Павел Владимирович
Аудио #4: AC-3, 2 ch, 320 kbps (Eng)
Субтитры: Английские
За исходник спасибо - Вадик38

x264 [info]: frame I:588 Avg QP:16.14 size:189300
x264 [info]: frame P:20828 Avg QP:18.63 size:111991
x264 [info]: frame B:90232 Avg QP:20.74 size: 63169
x264 [info]: consecutive B-frames: 1.6% 2.0% 3.6% 14.0% 12.8% 33.8% 9.2% 5.0% 5.1% 4.1% 3.1% 3.5% 2.1%
Общее
Уникальный идентификатор : 253935400545947352849620115172839581669 (0xBF0A2DDF13CF2B69AFAC78658E92E7E5)
Полное имя : Куклы (Dolls) 1986 BDRip 1080p.mkv
Формат : Matroska
Версия формата : Version 2
Размер файла : 8,07 Гбайт
Продолжительность : 1 ч. 17 м.
Общий поток : 14,9 Мбит/сек
Дата кодирования : UTC 2016-04-05 07:40:24
Программа кодирования : mkvmerge v4.0.0 ('The Stars were mine') сборка от Jun 6 2010 16:18:42
Библиотека кодирования : libebml v1.0.0 + libmatroska v1.0.0
Видео
Идентификатор : 1
Формат : AVC
Формат/Информация : Advanced Video Codec
Профиль формата : High@L4.1
Параметр CABAC формата : Да
Параметр ReFrames формата : 4 кадра
Идентификатор кодека : V_MPEG4/ISO/AVC
Продолжительность : 1 ч. 17 м.
Битрейт : 14,0 Мбит/сек
Ширина : 1920 пикселей
Высота : 1040 пикселей
Соотношение сторон : 1,85:1
Режим частоты кадров : Постоянный
Частота кадров : 23,976 кадра/сек
Цветовое пространство : YUV
Субдискретизация насыщенности : 4:2:0
Битовая глубина : 8 бит
Тип развёртки : Прогрессивная
Бит/(Пиксели*Кадры) : 0.292
Размер потока : 7,43 Гбайт (92%)
Библиотека кодирования : x264 core 146 r2538 121396c
Настройки программы : cabac=1 / ref=4 / deblock=1:-3:-3 / analyse=0x3:0x133 / me=umh / subme=11 / psy=1 / psy_rd=1.10:0.16 / mixed_ref=1 / me_range=32 / chroma_me=1 / trellis=2 / 8x8dct=1 / cqm=0 / deadzone=21,11 / fast_pskip=0 / chroma_qp_offset=-3 / threads=12 / lookahead_threads=2 / sliced_threads=0 / nr=0 / decimate=0 / interlaced=0 / bluray_compat=0 / constrained_intra=0 / bframes=12 / b_pyramid=2 / b_adapt=2 / b_bias=0 / direct=3 / weightb=1 / open_gop=0 / weightp=2 / keyint=240 / keyint_min=23 / scenecut=40 / intra_refresh=0 / rc_lookahead=60 / rc=2pass / mbtree=0 / bitrate=14000 / ratetol=1.0 / qcomp=0.60 / qpmin=0 / qpmax=69 / qpstep=4 / cplxblur=20.0 / qblur=0.5 / vbv_maxrate=50000 / vbv_bufsize=62500 / nal_hrd=none / filler=0 / ip_ratio=1.40 / pb_ratio=1.30 / aq=1:0.90
Язык : English
Default : Нет
Forced : Нет
Аудио #1
Идентификатор : 2
Формат : AC-3
Формат/Информация : Audio Coding 3
Расширение режима : CM (complete main)
Параметр Endianness формата : Big
Идентификатор кодека : A_AC3
Продолжительность : 1 ч. 17 м.
Вид битрейта : Постоянный
Битрейт : 192 Кбит/сек
Каналы : 2 канала
Расположение каналов : Front: L R
Частота : 48,0 КГц
Метод сжатия : С потерями
Размер потока : 107 Мбайт (1%)
Заголовок : DVO НТВ+
Язык : Russian
Default : Нет
Forced : Нет
Аудио #2
Идентификатор : 3
Формат : AC-3
Формат/Информация : Audio Coding 3
Расширение режима : CM (complete main)
Параметр Endianness формата : Big
Идентификатор кодека : A_AC3
Продолжительность : 1 ч. 17 м.
Вид битрейта : Постоянный
Битрейт : 192 Кбит/сек
Каналы : 2 канала
Расположение каналов : Front: L R
Частота : 48,0 КГц
Метод сжатия : С потерями
Размер потока : 107 Мбайт (1%)
Заголовок : DVO НТВ
Язык : Russian
Default : Нет
Forced : Нет
Аудио #3
Идентификатор : 4
Формат : AC-3
Формат/Информация : Audio Coding 3
Расширение режима : CM (complete main)
Параметр Endianness формата : Big
Идентификатор кодека : A_AC3
Продолжительность : 1 ч. 17 м.
Вид битрейта : Постоянный
Битрейт : 192 Кбит/сек
Каналы : 2 канала
Расположение каналов : Front: L R
Частота : 48,0 КГц
Метод сжатия : С потерями
Размер потока : 107 Мбайт (1%)
Заголовок : AVO Санаев Павел Владимирович
Язык : Russian
Default : Нет
Forced : Нет
Аудио #4
Идентификатор : 5
Формат : AC-3
Формат/Информация : Audio Coding 3
Профиль формата : Dolby Digital
Расширение режима : CM (complete main)
Параметр Endianness формата : Big
Идентификатор кодека : A_AC3
Продолжительность : 1 ч. 17 м.
Вид битрейта : Постоянный
Битрейт : 320 Кбит/сек
Каналы : 2 канала
Расположение каналов : Front: L R
Частота : 48,0 КГц
Метод сжатия : С потерями
Размер потока : 178 Мбайт (2%)
Язык : English
Default : Нет
Forced : Нет
Текст
Идентификатор : 6
Формат : UTF-8
Идентификатор кодека : S_TEXT/UTF8
Идентификатор кодека/Информация : UTF-8 Plain Text
Язык : English
Default : Нет
Forced : Нет





   Похожие торренты   Торрент   Размер 
В этой теме нет новых непрочитанных сообщений. Куклы / Dolls (2002) BDRip 1080p | P2

30 | 5

13.95 ГБ

В этой теме нет новых непрочитанных сообщений. Куклы / Dolls (1986) BDRemux 1080p от HDReactor | P2, A

1 | 0

17.11 ГБ

В этой теме нет новых непрочитанных сообщений. Куклы / Dolls (2002) BDRip-AVC | P2

250 | 17

2.9 ГБ

В этой теме нет новых непрочитанных сообщений. Куклы / Dolls (2002) BDRip 720p | P2

100 | 6

4.96 ГБ

В этой теме нет новых непрочитанных сообщений. Куклы за колючей проволокой / Frauengefängnis / Barbed Wire Dolls (1976) BDRemux 1080p

49 | 14

19.56 ГБ

В этой теме нет новых непрочитанных сообщений. Божественные куклы / Kamisama Dolls [01-13 из 13] (2011) BDRip

4 | 4

4.24 ГБ

В этой теме нет новых непрочитанных сообщений. Куклы / Dolls (1986) BDRip 720p от MediaClub | P2, A

67 | 32

4.49 ГБ




Вы не можете начинать темы
Вы не можете отвечать на сообщения
Вы не можете редактировать свои сообщения
Вы не можете удалять свои сообщения
Вы не можете добавлять вложения

Перейти:  
 Вход
ppkBB3cker v.2 © 2008-2014 @ PPK
[ Time : 1.593s | 17 Queries | GZIP : Off ]

cron