img image001 image001 image001 image001 image001 image001 image001 image001 image001 image001 image001 image001 image001 image001 image001 image001
Planets Sun Sun Sun
Статистика раздачи
Автор: Nickolas3434 | Размер: 4.35 ГБ | Добавлен: 16 апр 2016
Раздают: 13    Качают: 41
Скачать торрент
Скачать торрент
Описание торрента

СообщениеДобавлено: 16 апр 2016 

Информация о фильме
Название: Убийства в Черри-Фолс
Оригинальное название: Cherry Falls
Год выхода: 2000
Жанр: ужасы, триллер, комедия, детектив
Режиссер: Джеффри Райт
В ролях:
Бриттани Мёрфи — Джоди Маркен, Джей Мор — Леонард Марлистон, Майкл Бьен — шериф Брент Маркен, Джесси Брэдфорд — Род Харпер, Дональд Джозеф Куоллс — Валли, Кэнди Кларк — Мардж Маркен, Аманда Анка — заместитель шерифа, Джо Инскоу — Том Сислер, Гэбриэл Манн — Кенни Аскотт, Натали Рэмси — Сэнди, Дуглас Спэйн — Марк, Бри Блэр — Стэйси Твелфманн, Кристен Миллер — Синди, Майкл Уэстон — Бен, Керам Малики-Санчес — Тимми, Клементин Форд — Аннетт Дьювалд, Колин Фикес — Дино, Захари Найтон — мистер Ролли.
О фильме:
Однажды в городке Черри Фоллс происходит убийство влюбленной парочки из местной школы. Шериф Маркен начинает расследование, но почти сразу же убивают еще одну девушку. Становится ясно, что маньяк убивает только девственников. И пока полиция пытается выйти на его след, молодежь сама находит способ своего спасения.

Страна: США
Студия: Fresh Produce Company, Industry Entertainment, Rogue Pictures
Продолжительность: 01:31:30
Перевод: Профессиональный двухголосый, Профессиональный многоголосый, Оригинал
Файл
Кодек: x264
Качество: BDRip 720p
Видео: 1280x692 (1,85:1), 23.976 fps, 5652 kbps
Звук:
Аудио #1: AC3, 192 Kbps, 48.0 KHz, 2 ch (Rus) Профессиональный двухголосый, West Video
Аудио #2: AC3, 192 Kbps, 48.0 KHz, 2 ch (Ukr) Профессиональный многоголосый, НЛО TV
Аудио #3: AC3, 640 Kbps, 48.0 KHz, 6 ch (Eng) Оригинал
Субтитры: Английские


Формат : Matroska
Версия формата : Version 2
Размер файла : 4,35 Гбайт
Продолжительность : 1 ч. 31 м.
Общий поток : 6812 Кбит/сек
Дата кодирования : UTC 2016-04-12 08:50:54
Программа кодирования : mkvmerge v5.4.0 ('Piper') built on Mar 10 2012 13:34:39
Библиотека кодирования : libebml v1.2.3 + libmatroska v1.3.0
Видео
Идентификатор : 1
Формат : AVC
Формат/Информация : Advanced Video Codec
Профиль формата : High@L4.1
Параметр CABAC формата : Да
Параметр ReFrames формата : 9 кадров
Идентификатор кодека : V_MPEG4/ISO/AVC
Продолжительность : 1 ч. 31 м.
Битрейт : 5652 Кбит/сек
Ширина : 1280 пикселей
Высота : 692 пикселя
Соотношение сторон : 1,85:1
Режим частоты кадров : Постоянный
Частота кадров : 23,976 кадра/сек
Цветовое пространство : YUV
Субдискретизация насыщенности : 4:2:0
Битовая глубина : 8 бит
Тип развёртки : Прогрессивная
Бит/(Пиксели*Кадры) : 0.266
Размер потока : 3,61 Гбайт (83%)
Заголовок : Cherry Falls / Убийства в Черри-Фолс (2000)
Библиотека кодирования : x264 core 148 r2665+53 6629127 t_mod_Custom [8-bit@all X86_64]
Настройки программы : cabac=1 / ref=9 / deblock=1:-3:-3 / analyse=0x3:0x133 / me=umh / subme=10 / psy=1 / fade_compensate=0.00 / psy_rd=1.00:0.05 / mixed_ref=1 / me_range=24 / chroma_me=1 / trellis=2 / 8x8dct=1 / cqm=0 / deadzone=21,11 / fast_pskip=0 / chroma_qp_offset=-3 / threads=6 / lookahead_threads=1 / sliced_threads=0 / nr=0 / decimate=1 / interlaced=0 / bluray_compat=0 / constrained_intra=0 / fgo=0 / bframes=9 / b_pyramid=2 / b_adapt=2 / b_bias=0 / direct=3 / weightb=1 / open_gop=0 / weightp=2 / keyint=250 / keyint_min=23 / scenecut=40 / intra_refresh=0 / rc_lookahead=60 / rc=crf / mbtree=0 / crf=16.5000 / qcomp=0.65 / qpmin=0:0:0 / qpmax=69:69:69 / qpstep=4 / vbv_maxrate=62500 / vbv_bufsize=78125 / crf_max=0.0 / nal_hrd=none / filler=0 / ip_ratio=1.40 / pb_ratio=1.30 / aq=1:0.70 / aq-sensitivity=10.00 / aq-factor=1.00:1.00:1.00 / aq2=0 / aq3=0
Язык : English
Default : Да
Forced : Нет
Основные цвета : BT.709
Характеристики трансфера : BT.709
Коэффициенты матрицы : BT.709
colour_range : Limited
Аудио #1
Идентификатор : 2
Формат : AC-3
Формат/Информация : Audio Coding 3
Расширение режима : CM (complete main)
Параметр Endianness формата : Big
Идентификатор кодека : A_AC3
Продолжительность : 1 ч. 31 м.
Вид битрейта : Постоянный
Битрейт : 192 Кбит/сек
Каналы : 2 канала
Расположение каналов : Front: L R
Частота : 48,0 КГц
Битовая глубина : 16 бит
Метод сжатия : С потерями
Размер потока : 126 Мбайт (3%)
Заголовок : DVO (Russian) West Video
Язык : Russian
Default : Да
Forced : Нет
Аудио #2
Идентификатор : 3
Формат : AC-3
Формат/Информация : Audio Coding 3
Расширение режима : CM (complete main)
Параметр Endianness формата : Big
Идентификатор кодека : A_AC3
Продолжительность : 1 ч. 31 м.
Вид битрейта : Постоянный
Битрейт : 192 Кбит/сек
Каналы : 2 канала
Расположение каналов : Front: L R
Частота : 48,0 КГц
Битовая глубина : 16 бит
Метод сжатия : С потерями
Размер потока : 126 Мбайт (3%)
Заголовок : MVO (Ukrainian) НЛО TV
Язык : Ukrainian
Default : Нет
Forced : Нет
Аудио #3
Идентификатор : 4
Формат : AC-3
Формат/Информация : Audio Coding 3
Расширение режима : CM (complete main)
Параметр Endianness формата : Big
Идентификатор кодека : A_AC3
Продолжительность : 1 ч. 31 м.
Вид битрейта : Постоянный
Битрейт : 640 Кбит/сек
Каналы : 6 каналов
Расположение каналов : Front: L C R, Side: L R, LFE
Частота : 48,0 КГц
Битовая глубина : 16 бит
Метод сжатия : С потерями
Размер потока : 419 Мбайт (9%)
Заголовок : Original (English)
Язык : English
Default : Нет
Forced : Нет
Текст
Идентификатор : 5
Формат : UTF-8
Идентификатор кодека : S_TEXT/UTF8
Идентификатор кодека/Информация : UTF-8 Plain Text
Заголовок : Eng
Язык : English
Default : Нет
Forced : Нет
Меню
00:00:00.000 : en:00:00:00.000
00:07:44.338 : en:00:07:44.338
00:16:02.378 : en:00:16:02.378
00:22:22.883 : en:00:22:22.883
00:29:57.045 : en:00:29:57.045
00:37:21.739 : en:00:37:21.739
00:42:32.550 : en:00:42:32.550
00:52:28.979 : en:00:52:28.979
00:59:19.264 : en:00:59:19.264
01:08:08.709 : en:01:08:08.709
01:14:40.225 : en:01:14:40.225
01:23:30.755 : en:01:23:30.755

Рип от: SbR
Релиз от: by delia



   Похожие торренты   Торрент   Размер 
В этой теме нет новых непрочитанных сообщений. Убийства в Черри-Фолс / Cherry Falls (2000) BDRip 1080p от MediaClub | P2

5 | 0

7.49 ГБ

В этой теме нет новых непрочитанных сообщений. Убийства в Черри-Фолс / Cherry Falls (2000) DVDRip | P

2 | 0

1.33 ГБ

В этой теме нет новых непрочитанных сообщений. Убийства в Черри-Фолс / Cherry Falls (2000) DVDRip

10 | 8

745.82 МБ

В этой теме нет новых непрочитанных сообщений. Черри 2000 / Cherry 2000 (1987) BDRip 720p by msltel

43 | 8

4.22 ГБ

В этой теме нет новых непрочитанных сообщений. Черри 2000 / Вишня 2000 / Cherry 2000 (1987) HDTVRip 720p от ClubTorrent | P2

14 | 4

2.48 ГБ

В этой теме нет новых непрочитанных сообщений. Вишня 2000 / Черри 2000 / Cherry 2000 (1987) BDRip | Р, Р2, А

17 | 1

2.07 ГБ

В этой теме нет новых непрочитанных сообщений. Черри 2000 / Cherry 2000 (1987) BDRip 1080p by msltel

45 | 10

10.03 ГБ




Вы не можете начинать темы
Вы не можете отвечать на сообщения
Вы не можете редактировать свои сообщения
Вы не можете удалять свои сообщения
Вы не можете добавлять вложения

Перейти:  
 Вход
ppkBB3cker v.2 © 2008-2014 @ PPK
[ Time : 0.070s | 19 Queries | GZIP : Off ]

cron