img image001 image001 image001 image001 image001 image001 image001 image001 image001 image001 image001 image001 image001 image001 image001 image001

Planets Sun Sun Sun
Статистика раздачи
Автор: Nickolas3434 | Размер: 3.34 ГБ | Добавлен: 16 апр 2016
Раздают: 86    Качают: 152
Скачать торрент
Скачать торрент
Описание торрента

СообщениеДобавлено: 16 апр 2016 


Информация о фильме
Название: Ночь кометы
Оригинальное название: Night of the Comet
Год выхода: 1984
Жанр: фантастика, комедия, ужасы
Режиссер: Том Эберхардт
В ролях:
Кэтрин Мэри Стюарт — Реджина «Реги» Бельмонт, Келли Маруни — Саманта «Сэм» Бельмонт, Роберт Бельтран — Эктор Гомес, Мэри Воронов — Одри Уайт, Джеффри Льюис — доктор Картер, Шэрон Фаррелл — Дорис мачеха Реджи и Сэм, Питер Фокс — доктор Уилсон, Джон Акхорн — Оскар, Майкл Боуэн — Ларри Дюпри, Девон Эриксон — моторист.
О фильме:
Мир сошел с ума. К Земле приближается комета. Приходит конец света, в который никто не верил. Ночью — пир во время чумы. А утром наступает отрезвление. Сколько человек осталось на всей планете?
18-летняя Рэгги, мастерица ставить рекорды на игральных автоматах, ее младшая сестренка Кэти, парень — полицейский, несколько преступников, дорвавшихся до свободы, которая им не очень-то и нужна. И зомби, там и сям выползающие на свет, словно отравленные химикатами крысы. А от всего прочего человечества — одна лишь пыль.
Горы пыли на улицах, по которым блуждает только ветер. Впрочем, есть еще где-то далеко военно-исследовательская станция, также подающая признаки жизни. Но смогут ли все те, кто уцелел после нашествия апокалиптической кометы объяснить, что же все-таки произошло на Земле и почему кому-то удалось выжить?

Страна: США
Студия: Film Development Fund, Thomas Coleman and Michael Rosenblatt Productions
Продолжительность: 01:35:12
Перевод: Профессиональный двухголосый, Авторский одноголосый, Оригинал
Файл
Кодек: x264
Качество: BDRip 720p
Видео: 1280x694 (1,85:1), 23.976 fps, 4000 kbps
Звук:
Аудио #1: AC3, 192 Kbps, 48.0 KHz, 2 ch (Rus) Профессиональный двухголосый, НТВ+
Аудио #2: AC3, 192 Kbps, 48.0 KHz, 2 ch (Rus) Профессиональный двухголосый, ТВ6
Аудио #3: AC3, 192 Kbps, 48.0 KHz, 2 ch (Rus) Авторский одноголосый, С.Визгунов
Аудио #4: AC3, 448 Kbps, 48.0 KHz, 6 ch (Eng) Оригинал
Субтитры: Английские


Формат : Matroska
Версия формата : Version 2
Размер файла : 3,34 Гбайт
Продолжительность : 1 ч. 35 м.
Общий поток : 5025 Кбит/сек
Дата кодирования : UTC 2016-04-15 17:11:27
Программа кодирования : mkvmerge v5.4.0 ('Piper') built on Mar 10 2012 13:34:39
Библиотека кодирования : libebml v1.2.3 + libmatroska v1.3.0
Видео
Идентификатор : 1
Формат : AVC
Формат/Информация : Advanced Video Codec
Профиль формата : High@L4.1
Параметр CABAC формата : Да
Параметр ReFrames формата : 8 кадров
Идентификатор кодека : V_MPEG4/ISO/AVC
Продолжительность : 1 ч. 35 м.
Битрейт : 4000 Кбит/сек
Ширина : 1280 пикселей
Высота : 694 пикселя
Соотношение сторон : 1,85:1
Режим частоты кадров : Постоянный
Частота кадров : 23,976 кадра/сек
Цветовое пространство : YUV
Субдискретизация насыщенности : 4:2:0
Битовая глубина : 8 бит
Тип развёртки : Прогрессивная
Бит/(Пиксели*Кадры) : 0.188
Размер потока : 2,59 Гбайт (78%)
Заголовок : Night of the Comet / Ночь кометы (1984)
Библиотека кодирования : x264 core 130 r2273 b3065e6
Настройки программы : cabac=1 / ref=8 / deblock=1:-3:-3 / analyse=0x3:0x133 / me=umh / subme=11 / psy=1 / psy_rd=1.00:0.20 / mixed_ref=1 / me_range=48 / chroma_me=1 / trellis=2 / 8x8dct=1 / cqm=0 / deadzone=21,11 / fast_pskip=0 / chroma_qp_offset=-3 / threads=12 / lookahead_threads=3 / sliced_threads=0 / nr=0 / decimate=0 / interlaced=0 / bluray_compat=0 / constrained_intra=0 / bframes=10 / b_pyramid=2 / b_adapt=2 / b_bias=0 / direct=3 / weightb=1 / open_gop=0 / weightp=2 / keyint=240 / keyint_min=23 / scenecut=40 / intra_refresh=0 / rc=2pass / mbtree=0 / bitrate=4000 / ratetol=1.0 / qcomp=0.60 / qpmin=0 / qpmax=69 / qpstep=4 / cplxblur=20.0 / qblur=0.5 / ip_ratio=1.40 / pb_ratio=1.30 / aq=1:1.00
Язык : English
Default : Да
Forced : Нет
Аудио #1
Идентификатор : 2
Формат : AC-3
Формат/Информация : Audio Coding 3
Расширение режима : CM (complete main)
Параметр Endianness формата : Big
Идентификатор кодека : A_AC3
Продолжительность : 1 ч. 35 м.
Вид битрейта : Постоянный
Битрейт : 192 Кбит/сек
Каналы : 2 канала
Расположение каналов : Front: L R
Частота : 48,0 КГц
Битовая глубина : 16 бит
Метод сжатия : С потерями
Размер потока : 131 Мбайт (4%)
Заголовок : DVO (Russian) НТВ+
Язык : Russian
Default : Да
Forced : Нет
Аудио #2
Идентификатор : 3
Формат : AC-3
Формат/Информация : Audio Coding 3
Расширение режима : CM (complete main)
Параметр Endianness формата : Big
Идентификатор кодека : A_AC3
Продолжительность : 1 ч. 35 м.
Вид битрейта : Постоянный
Битрейт : 192 Кбит/сек
Каналы : 2 канала
Расположение каналов : Front: L R
Частота : 48,0 КГц
Битовая глубина : 16 бит
Метод сжатия : С потерями
Размер потока : 131 Мбайт (4%)
Заголовок : DVO (Russian) ТВ6
Язык : Russian
Default : Нет
Forced : Нет
Аудио #3
Идентификатор : 4
Формат : AC-3
Формат/Информация : Audio Coding 3
Расширение режима : CM (complete main)
Параметр Endianness формата : Big
Идентификатор кодека : A_AC3
Продолжительность : 1 ч. 35 м.
Вид битрейта : Постоянный
Битрейт : 192 Кбит/сек
Каналы : 2 канала
Расположение каналов : Front: L R
Частота : 48,0 КГц
Битовая глубина : 16 бит
Метод сжатия : С потерями
Размер потока : 131 Мбайт (4%)
Заголовок : AVO (С.Визгунов)
Язык : Russian
Default : Нет
Forced : Нет
Аудио #4
Идентификатор : 5
Формат : AC-3
Формат/Информация : Audio Coding 3
Расширение режима : CM (complete main)
Параметр Endianness формата : Big
Идентификатор кодека : A_AC3
Продолжительность : 1 ч. 35 м.
Вид битрейта : Постоянный
Битрейт : 448 Кбит/сек
Каналы : 6 каналов
Расположение каналов : Front: L C R, Side: L R, LFE
Частота : 48,0 КГц
Битовая глубина : 16 бит
Метод сжатия : С потерями
Размер потока : 305 Мбайт (9%)
Заголовок : Original (English)
Язык : English
Default : Нет
Forced : Нет
Текст
Идентификатор : 6
Формат : UTF-8
Идентификатор кодека : S_TEXT/UTF8
Идентификатор кодека/Информация : UTF-8 Plain Text
Заголовок : Eng
Язык : English
Default : Нет
Forced : Нет
Меню
00:00:00.000 : en:Chapter 01
00:06:33.392 : en:Chapter 02
00:11:07.291 : en:Chapter 03
00:19:25.789 : en:Chapter 04
00:26:07.190 : en:Chapter 05
00:34:12.675 : en:Chapter 06
00:43:49.251 : en:Chapter 07
00:50:42.039 : en:Chapter 08
00:58:35.512 : en:Chapter 09
01:05:07.904 : en:Chapter 10
01:11:52.933 : en:Chapter 11
01:22:09.925 : en:Chapter 12



   Похожие торренты   Торрент   Размер 
В этой теме нет новых непрочитанных сообщений. Ночь Кометы / Night of the Comet (1984) BDRip 720p от MediaClub | P2, A

4 | 6

3.21 ГБ

В этой теме нет новых непрочитанных сообщений. Ночь кометы / Night of the Comet (1984) BDRip | P2

5 | 14

1.46 ГБ

В этой теме нет новых непрочитанных сообщений. Ночь Кометы / Night of the Comet (1984) BDRip 1080p

29 | 6

8.16 ГБ

В этой теме нет новых непрочитанных сообщений. Ночь Кометы / Night of the Comet (1984) BDRip-AVC от MediaClub | P2, A

25 | 8

2.18 ГБ

В этой теме нет новых непрочитанных сообщений. Ночь кометы / Night of the Comet (1984) HDRip | P2

41 | 5

744.68 МБ

В этой теме нет новых непрочитанных сообщений. Ночь кометы / Night of the Comet (Том Эберхардт) [1984, фантастика, комедия, ужасы, BDRip] DVO / Фантастика

7 | 0

1.46 ГБ

В этой теме нет новых непрочитанных сообщений. Тихая ночь, смертельная ночь / Silent Night, Deadly Night (1984) BDRip 720p | A

118 | 84

3.6 ГБ




Вы не можете начинать темы
Вы не можете отвечать на сообщения
Вы не можете редактировать свои сообщения
Вы не можете удалять свои сообщения
Вы не можете добавлять вложения

Перейти:  
 Вход
ppkBB3cker v.2 © 2008-2014 @ PPK
[ Time : 0.034s | 16 Queries | GZIP : Off ]

cron