img image001 image001 image001 image001 image001 image001 image001 image001 image001 image001 image001 image001 image001 image001 image001

Planets Sun Sun Sun
Статистика раздачи
Автор: Nickolas3434 | Размер: 7.76 ГБ | Добавлен: 19 апр 2016
Раздают: 21    Качают: 1
Скачать торрент
Скачать торрент
Описание торрента

СообщениеДобавлено: 19 апр 2016 


Информация о фильме
    Русское название: Прекрасная пленница
    Оригинальное название: La Belle Captive / The Beautiful Prisone
    Год выхода: 1983
    Жанр: ужасы, фэнтези, драма
    Режиссер: Ален Роб-Грийе
    Выпущено: Франция
    Продолжительность: 01:28:26
    Перевод: Профессиональный (Многоголосый закадровый)
    В ролях: Даниэль Месгиш, Сирил Клер, Даниэль Эмильфорк, Франсуа Шометт, Габриель Лазюр, Жиль Арбона, Ариель Домбаль, Жан-Клод Легэ, Нанси Ван Слик, Дени Фукере


Сюжет фильма
    Некто Вальтер знакомится в баре с незнакомкой, которая, оказывается, была убита 6 лет назад на вилле своего жениха — графа Коринфского. Тут же Вальтера отправляют к самому графу передать конверт, и новые мистические приключения ему обеспечены...


Файл
    Качество: BDRip 1080p (исходник Blu-ray Disc)
    Формат: MKV
    Видео: 1794x1080, 11982 Кбит/сек, 23,976 кадр/сек, AVC, x264, High@L4.1, 5:3, 0.258 Бит/[Пиксели*Кадры]
    Аудио 1: AC-3, 192 Кбит/сек, 2 канала(ов), 48,0 КГц - Многоголосый закадровый, Петербург 5 канал / Русский
    Аудио 1: AC-3, 192 Кбит/сек, 2 канала(ов), 48,0 КГц - Многоголосый закадровый / Русский
    Аудио 2: AC-3, 192 Кбит/сек, 2 канала(ов), 48,0 КГц - Оригинал / Французский
    Субтитры: Русские | Полные, Английские | Полные
    Форсированные субтитры: Нет
    Чаптеры (Главы): Есть



Автор Рипа: Сообщество: мы в VK


Format : Matroska
Format version : Version 2
File size : 7.76 GiB
Duration : 1h 28mn
Overall bit rate : 12.6 Mbps
Movie name : Прекрасная пленница.(1983).BDRip.1080p.[envy]
Encoded date : UTC 2016-04-17 06:58:28
Writing application : mkvmerge v5.8.0 ('No Sleep / Pillow') built on Sep 2 2012 15:37:04
Writing library : libebml v1.2.3 + libmatroska v1.3.0
Video
ID : 1
Format : AVC
Format/Info : Advanced Video Codec
Format profile : High@L4.1
Format settings, CABAC : Yes
Format settings, ReFrames : 4 frames
Codec ID : V_MPEG4/ISO/AVC
Duration : 1h 28mn
Bit rate : 12.0 Mbps
Width : 1 794 pixels
Height : 1 080 pixels
Display aspect ratio : 5:3
Frame rate mode : Constant
Frame rate : 23.976 (24000/1001) fps
Color space : YUV
Chroma subsampling : 4:2:0
Bit depth : 8 bits
Scan type : Progressive
Bits/(Pixel*Frame) : 0.258
Stream size : 7.25 GiB (93%)
Title : Прекрасная пленница.(1983).BDRip.1080p.[envy]
Writing library : x264 core 148 r2665 a01e339
Encoding settings : cabac=1 / ref=4 / deblock=1:-3:-3 / analyse=0x3:0x133 / me=umh / subme=11 / psy=1 / psy_rd=1.00:0.00 / mixed_ref=1 / me_range=32 / chroma_me=1 / trellis=2 / 8x8dct=1 / cqm=0 / deadzone=21,11 / fast_pskip=0 / chroma_qp_offset=-2 / threads=12 / lookahead_threads=1 / sliced_threads=0 / nr=0 / decimate=1 / interlaced=0 / bluray_compat=0 / constrained_intra=0 / bframes=5 / b_pyramid=2 / b_adapt=2 / b_bias=0 / direct=3 / weightb=1 / open_gop=0 / weightp=2 / keyint=240 / keyint_min=23 / scenecut=40 / intra_refresh=0 / rc=2pass / mbtree=0 / bitrate=11982 / ratetol=2.0 / qcomp=0.60 / qpmin=0 / qpmax=69 / qpstep=4 / cplxblur=20.0 / qblur=0.5 / ip_ratio=1.40 / pb_ratio=1.30 / aq=2:0.80
Language : French
Default : Yes
Forced : No
Audio #1
ID : 2
Format : AC-3
Format/Info : Audio Coding 3
Mode extension : CM (complete main)
Format settings, Endianness : Big
Codec ID : A_AC3
Duration : 1h 28mn
Bit rate mode : Constant
Bit rate : 192 Kbps
Channel(s) : 2 channels
Channel positions : Front: L R
Sampling rate : 48.0 KHz
Frame rate : 31.250 fps (1536 spf)
Compression mode : Lossy
Stream size : 121 MiB (2%)
Title : MVO Peterburg 5 kanal
Language : Russian
Default : Yes
Forced : No
Audio #2
ID : 3
Format : AC-3
Format/Info : Audio Coding 3
Mode extension : CM (complete main)
Format settings, Endianness : Big
Codec ID : A_AC3
Duration : 1h 28mn
Bit rate mode : Constant
Bit rate : 192 Kbps
Channel(s) : 2 channels
Channel positions : Front: L R
Sampling rate : 48.0 KHz
Frame rate : 31.250 fps (1536 spf)
Compression mode : Lossy
Stream size : 121 MiB (2%)
Title : MVO
Language : Russian
Default : No
Forced : No
Audio #3
ID : 4
Format : AC-3
Format/Info : Audio Coding 3
Mode extension : CM (complete main)
Format settings, Endianness : Big
Codec ID : A_AC3
Duration : 1h 28mn
Bit rate mode : Constant
Bit rate : 192 Kbps
Channel(s) : 2 channels
Channel positions : Front: L R
Sampling rate : 48.0 KHz
Frame rate : 31.250 fps (1536 spf)
Compression mode : Lossy
Stream size : 121 MiB (2%)
Title : Fre
Language : French
Default : No
Forced : No
Text #1
ID : 5
Format : UTF-8
Codec ID : S_TEXT/UTF8
Codec ID/Info : UTF-8 Plain Text
Title : Rus full
Language : Russian
Default : No
Forced : No
Text #2
ID : 6
Format : UTF-8
Codec ID : S_TEXT/UTF8
Codec ID/Info : UTF-8 Plain Text
Title : Eng full
Language : English
Default : No
Forced : No
Menu
00:00:00.000 : :Chapter 01
00:01:45.730 : :Chapter 02
00:13:50.453 : :Chapter 03
00:24:08.445 : :Chapter 04
00:40:11.409 : :Chapter 05
00:54:27.264 : :Chapter 06
01:10:53.874 : :Chapter 07
01:24:13.046 : :Chapter 08




   Похожие торренты   Торрент   Размер 
В этой теме нет новых непрочитанных сообщений. Прекрасная пленница / La belle captive (1983) BDRemux 1080p | P, A

6 | 7

22.18 ГБ

В этой теме нет новых непрочитанных сообщений. Прекрасная пленница / La belle captive (1983) BDRip 720p

34 | 16

2.76 ГБ

В этой теме нет новых непрочитанных сообщений. Прекрасная пленница / La Belle captive (1983) DVDRip от Alekxandr48

20 | 31

701.41 МБ

В этой теме нет новых непрочитанных сообщений. Пленница / The Captive (2014) BDRip 1080p | P

187 | 49

7.79 ГБ

В этой теме нет новых непрочитанных сообщений. Прекрасная пленница / The Beautiful Prisoner (1983) DVDRip от Camellia

38 | 7

1.36 ГБ

В этой теме нет новых непрочитанных сообщений. Прекрасная пленница / The Beautiful Prisoner (1983) DVDRip-AVC от R.G.Mega.Best

11 | 3

1.6 ГБ

В этой теме нет новых непрочитанных сообщений. Пленница / The Captive (2014) BDRip 720p | P

822 | 265

6.61 ГБ




Вы не можете начинать темы
Вы не можете отвечать на сообщения
Вы не можете редактировать свои сообщения
Вы не можете удалять свои сообщения
Вы не можете добавлять вложения

Перейти:  
Для Мосгорсуда, Роскомнадзора и рекламодателей: mosgorsud-torrent[собачка]yandex.ru
 Вход
ppkBB3cker v.2 © 2008-2014 @ PPK
[ Time : 0.213s | 16 Queries | GZIP : Off ]

Торрент трекер RUTOR.IN, Не можете зайти на rutor.org? Какой новый адрес рутор? Какое зеркало рутор? Не работает rutor.org и зеркала? Тогда наш торрент специально для вас. Rutor.in неофициальное зеркало rutor. В случае если у Вас заблокирован rutor или вдруг Вы не можете на него зайти, то Вы без труда сможете скачать бесплатно и без рекламы последние новинки кино, игр, сериалов и прочего у нас, на Rutor.in. Не нужно использовать прокси, чтобы зайти на рутор, достаточно воспользоваться нашим ресурсом. Все новые фильмы, игры, сериалы, книги и музыка за 2013 и 2014 годы через торрент бесплатно. Скачивайте фильмы в хорошем качестве, игры для пк, xbox, playstation без регистрации. У нас вы найдете новые Зарубежные сериалы и Русские сериалы 2013, 2014, 2015 годов. Оставайтесь с нами, качайте любимые фильмы, игры, сериалы, книги и музыку.