img image001 image001 image001 image001 image001 image001 image001 image001 image001 image001 image001 image001 image001 image001 image001 image001

Planets Sun Sun Sun
Статистика раздачи
Автор: Nickolas3434 | Размер: 13.47 ГБ | Добавлен: 19 апр 2016
Раздают: 42    Качают: 70
Скачать торрент
Скачать торрент
Описание торрента

СообщениеДобавлено: 19 апр 2016 


Информация о фильме
Название: Отряд Дельта
Оригинальное название: The Delta Force
Год выпуска: 1986
Страна: США, Израиль
Продолжительность: 02:09:13
Жанр: Боевик, триллер, драма
Перевод: Профессиональный (многоголосый закадровый)
Перевод: Профессиональный (многоголосый закадровый) R5
Перевод: Профессиональный (многоголосый закадровый) 5 канал
Перевод: Профессиональный (многоголосый закадровый) 2х2
Перевод: Профессиональный (многоголосый закадровый) СТС
Перевод: Авторский (одноголосый закадровый) В.Горчакова
Перевод: Авторский (одноголосый закадровый) Л.Володарского
Перевод: Авторский (одноголосый закадровый) В.Сонькина
Перевод: Авторский (одноголосый закадровый) неизвестный
Перевод: Авторский (одноголосый закадровый) А. Дольский
Cубтитры: Английские
Режиссер: Менахем Голан
В ролях: Чак Норрис, Ли Марвин, Мартин Болсам, Джои Бишоп, Роберт Форстер, Лэйни Казан, Джордж Кеннеди, Ханна Шигулла, Сьюзен Страсберг, Бо Свенсон
О фильме: Когда опасные террористы захватывают американских туристов и переправляют их в Бейрут, президент направляет отряд «Дельта» - бригаду первоклассных бойцов под командованием полковника Ника Александера и майора Скотта Маккоя, чтобы освободить их.
Вскоре после переброски на Средний Восток элитный спасательный отряд получает сведения, что женщин и детей отпустили, но мужчин банда фанатичных преступников по - прежнему удерживает в здании школы, расположенном на берегу моря. Сметая все на своем пути, сквозь огонь и взрывы отряд «Дельта» прорывается в лагерь террористов и, не оставляя пленных, освобождает заложников. Однако на этом миссия не заканчивается. Бандиты успели перевезти нескольких заложников в Тегеран, и теперь в битве за их спасение время работает против Александера и Маккоя.
Они обязаны успеть - ведь на кону жизнь людей и честь родины.

Файл
Качество: BDRip 1080p
Видео: MPEG4 Video (H264), 1920x1080, 23.976fps, 12.3 Mbps
Аудио #01: Русский: Dolby AC3, 48000 Hz, 2ch, 192 kbps - Многоголосый
Аудио #02: Русский: Dolby AC3, 48000 Hz, 2ch, 192 kbps - Многоголосый, R5
Аудио #03: Русский: Dolby AC3, 48000 Hz, 2ch, 192 kbps - Многоголосый, 5 канал
Аудио #04: Русский: Dolby AC3, 48000 Hz, 2ch, 192 kbps - Многоголосый, 2х2
Аудио #05: Русский: Dolby AC3, 48000 Hz, 2ch, 192 kbps - Многоголосый, СТС
Аудио #06: Русский: Dolby AC3, 48000 Hz, 2ch, 192 kbps - Одноголосый, В. Горчаков
Аудио #07: Русский: Dolby AC3, 48000 Hz, 2ch, 192 kbps - Одноголосый, Л. Володарский
Аудио #08: Русский: Dolby AC3, 48000 Hz, 2ch, 192 kbps - Одноголосый, В. Сонькин
Аудио #09: Русский: Dolby AC3, 48000 Hz, 2ch, 192 kbps - Одноголосый, неизвестный
Аудио #10: Русский: Dolby AC3, 48000 Hz, 2ch, 448 kbps - Одноголосый, А. Дольский
Аудио #11: Английский: Dolby AC3, 48000 Hz, 2ch, 448 kbps
Формат субтитров: Softsub (SRT)
Сэмпл
General
Unique ID : 232909141930248267961018103477489175891 (0xAF38AB4898F6D327876E3D48E8350D53)
Complete name : F:DVDRip1986 Отряд Дельта1986 Отряд Дельта.mkv
Format : Matroska
Format version : Version 4 / Version 2
File size : 13.5 GiB
Duration : 2h 9mn
Overall bit rate : 14.9 Mbps
Movie name : 1986 Отряд Дельта / renta23
Encoded date : UTC 2016-04-18 09:22:44
Writing application : mkvmerge v8.3.0 ('Over the Horizon') 64bit
Writing library : libebml v1.3.1 + libmatroska v1.4.2
Video
ID : 1
Format : AVC
Format/Info : Advanced Video Codec
Format profile : High@L4.1
Format settings, CABAC : Yes
Format settings, ReFrames : 4 frames
Codec ID : V_MPEG4/ISO/AVC
Duration : 2h 9mn
Bit rate : 12.3 Mbps
Width : 1 920 pixels
Height : 1 080 pixels
Display aspect ratio : 16:9
Frame rate mode : Constant
Frame rate : 23.976 (24000/1001) fps
Color space : YUV
Chroma subsampling : 4:2:0
Bit depth : 8 bits
Scan type : Progressive
Bits/(Pixel*Frame) : 0.247
Stream size : 11.1 GiB (82%)
Title : 1986 Отряд Дельта
Writing library : x264 core 146 r2538 121396c
Encoding settings : cabac=1 / ref=4 / deblock=1:-1:-1 / analyse=0x3:0x133 / me=umh / subme=11 / psy=1 / psy_rd=1.07:0.23 / mixed_ref=1 / me_range=32 / chroma_me=1 / trellis=2 / 8x8dct=1 / cqm=0 / deadzone=21,11 / fast_pskip=0 / chroma_qp_offset=-3 / threads=12 / lookahead_threads=3 / sliced_threads=0 / nr=0 / decimate=1 / interlaced=0 / bluray_compat=0 / constrained_intra=0 / bframes=14 / b_pyramid=2 / b_adapt=2 / b_bias=0 / direct=3 / weightb=1 / open_gop=0 / weightp=2 / keyint=250 / keyint_min=23 / scenecut=40 / intra_refresh=0 / rc=2pass / mbtree=0 / bitrate=12300 / ratetol=1.0 / qcomp=0.60 / qpmin=0 / qpmax=69 / qpstep=4 / cplxblur=20.0 / qblur=0.5 / ip_ratio=1.40 / pb_ratio=1.30 / aq=2:1.00
Language : English
Default : Yes
Forced : No
Audio #1
ID : 2
Format : AC-3
Format/Info : Audio Coding 3
Mode extension : CM (complete main)
Format settings, Endianness : Big
Codec ID : A_AC3
Duration : 2h 9mn
Bit rate mode : Constant
Bit rate : 192 Kbps
Channel(s) : 2 channels
Channel positions : Front: L R
Sampling rate : 48.0 KHz
Frame rate : 31.250 fps (1536 spf)
Compression mode : Lossy
Stream size : 177 MiB (1%)
Title : Многоголосый
Language : Russian
Default : Yes
Forced : No
Audio #2
ID : 3
Format : AC-3
Format/Info : Audio Coding 3
Mode extension : CM (complete main)
Format settings, Endianness : Big
Codec ID : A_AC3
Duration : 2h 9mn
Bit rate mode : Constant
Bit rate : 192 Kbps
Channel(s) : 2 channels
Channel positions : Front: L R
Sampling rate : 48.0 KHz
Frame rate : 31.250 fps (1536 spf)
Compression mode : Lossy
Stream size : 177 MiB (1%)
Title : Многоголосый, R5
Language : Russian
Default : No
Forced : No
Audio #3
ID : 4
Format : AC-3
Format/Info : Audio Coding 3
Mode extension : CM (complete main)
Format settings, Endianness : Big
Codec ID : A_AC3
Duration : 2h 9mn
Bit rate mode : Constant
Bit rate : 192 Kbps
Channel(s) : 2 channels
Channel positions : Front: L R
Sampling rate : 48.0 KHz
Frame rate : 31.250 fps (1536 spf)
Compression mode : Lossy
Stream size : 177 MiB (1%)
Title : Многоголосый, 5 канал
Language : Russian
Default : No
Forced : No
Audio #4
ID : 5
Format : AC-3
Format/Info : Audio Coding 3
Mode extension : CM (complete main)
Format settings, Endianness : Big
Codec ID : A_AC3
Duration : 2h 9mn
Bit rate mode : Constant
Bit rate : 192 Kbps
Channel(s) : 2 channels
Channel positions : Front: L R
Sampling rate : 48.0 KHz
Frame rate : 31.250 fps (1536 spf)
Compression mode : Lossy
Stream size : 177 MiB (1%)
Title : Многоголосый, 2х2
Language : Russian
Default : No
Forced : No
Audio #5
ID : 6
Format : AC-3
Format/Info : Audio Coding 3
Mode extension : CM (complete main)
Format settings, Endianness : Big
Codec ID : A_AC3
Duration : 2h 9mn
Bit rate mode : Constant
Bit rate : 192 Kbps
Channel(s) : 2 channels
Channel positions : Front: L R
Sampling rate : 48.0 KHz
Frame rate : 31.250 fps (1536 spf)
Compression mode : Lossy
Stream size : 177 MiB (1%)
Title : Многоголосый, СТС
Language : Russian
Default : No
Forced : No
Audio #6
ID : 7
Format : AC-3
Format/Info : Audio Coding 3
Mode extension : CM (complete main)
Format settings, Endianness : Big
Codec ID : A_AC3
Duration : 2h 9mn
Bit rate mode : Constant
Bit rate : 192 Kbps
Channel(s) : 2 channels
Channel positions : Front: L R
Sampling rate : 48.0 KHz
Frame rate : 31.250 fps (1536 spf)
Compression mode : Lossy
Stream size : 177 MiB (1%)
Title : Одноголосый, В. Горчаков
Language : Russian
Default : No
Forced : No
Audio #7
ID : 8
Format : AC-3
Format/Info : Audio Coding 3
Mode extension : CM (complete main)
Format settings, Endianness : Big
Codec ID : A_AC3
Duration : 2h 9mn
Bit rate mode : Constant
Bit rate : 192 Kbps
Channel(s) : 2 channels
Channel positions : Front: L R
Sampling rate : 48.0 KHz
Frame rate : 31.250 fps (1536 spf)
Compression mode : Lossy
Stream size : 177 MiB (1%)
Title : Одноголосый, Л. Володарский
Language : Russian
Default : No
Forced : No
Audio #8
ID : 9
Format : AC-3
Format/Info : Audio Coding 3
Mode extension : CM (complete main)
Format settings, Endianness : Big
Codec ID : A_AC3
Duration : 2h 9mn
Bit rate mode : Constant
Bit rate : 192 Kbps
Channel(s) : 2 channels
Channel positions : Front: L R
Sampling rate : 48.0 KHz
Frame rate : 31.250 fps (1536 spf)
Compression mode : Lossy
Stream size : 177 MiB (1%)
Title : Одноголосый, В. Сонькин
Language : Russian
Default : No
Forced : No
Audio #9
ID : 10
Format : AC-3
Format/Info : Audio Coding 3
Mode extension : CM (complete main)
Format settings, Endianness : Big
Codec ID : A_AC3
Duration : 2h 9mn
Bit rate mode : Constant
Bit rate : 192 Kbps
Channel(s) : 2 channels
Channel positions : Front: L R
Sampling rate : 48.0 KHz
Frame rate : 31.250 fps (1536 spf)
Compression mode : Lossy
Stream size : 177 MiB (1%)
Title : Одноголосый, неизвестный
Language : Russian
Default : No
Forced : No
Audio #10
ID : 11
Format : AC-3
Format/Info : Audio Coding 3
Mode extension : CM (complete main)
Format settings, Endianness : Big
Codec ID : A_AC3
Duration : 2h 9mn
Bit rate mode : Constant
Bit rate : 448 Kbps
Channel(s) : 2 channels
Channel positions : Front: L R
Sampling rate : 48.0 KHz
Frame rate : 31.250 fps (1536 spf)
Compression mode : Lossy
Stream size : 414 MiB (3%)
Title : Одноголосый, А. Дольский
Language : Russian
Default : No
Forced : No
Audio #11
ID : 12
Format : AC-3
Format/Info : Audio Coding 3
Mode extension : CM (complete main)
Format settings, Endianness : Big
Codec ID : A_AC3
Duration : 2h 9mn
Bit rate mode : Constant
Bit rate : 448 Kbps
Channel(s) : 2 channels
Channel positions : Front: L R
Sampling rate : 48.0 KHz
Frame rate : 31.250 fps (1536 spf)
Compression mode : Lossy
Stream size : 414 MiB (3%)
Language : English
Default : No
Forced : No
Text
ID : 13
Format : UTF-8
Codec ID : S_TEXT/UTF8
Codec ID/Info : UTF-8 Plain Text
Duration : 2h 8mn
Bit rate : 43 bps
Count of elements : 1227
Stream size : 41.3 KiB (0%)
Language : English
Default : No
Forced : No
Menu
00:00:00.000 : en:Chapter 01
00:05:19.277 : en:Chapter 02
00:08:26.214 : en:Chapter 03
00:16:05.381 : en:Chapter 04
00:23:02.756 : en:Chapter 05
00:30:23.822 : en:Chapter 06
00:32:08.551 : en:Chapter 07
00:38:23.050 : en:Chapter 08
00:42:15.991 : en:Chapter 09
00:46:34.500 : en:Chapter 10
00:48:43.879 : en:Chapter 11
00:56:52.117 : en:Chapter 12
01:02:27.368 : en:Chapter 13
01:04:41.752 : en:Chapter 14
01:09:29.206 : en:Chapter 15
01:14:18.412 : en:Chapter 16
01:17:04.077 : en:Chapter 17
01:24:02.954 : en:Chapter 18
01:31:08.546 : en:Chapter 19
01:35:22.883 : en:Chapter 20
01:38:59.391 : en:Chapter 21
01:45:49.968 : en:Chapter 22
01:52:56.644 : en:Chapter 23
01:59:09.725 : en:Chapter 24





   Похожие торренты   Торрент   Размер 
В этой теме нет новых непрочитанных сообщений. Отряд Дельта / The Delta Force (1986) BDRip-AVC от 0ptimus | P, A, L1

0 | 10

4.02 ГБ

В этой теме нет новых непрочитанных сообщений. Отряд «Дельта» / The Delta Force (1986) BDRip 720p | P, A

27 | 9

7.76 ГБ

В этой теме нет новых непрочитанных сообщений. Отряд «Дельта» / The Delta Force (1986) BDRip от HQCLUB

11 | 6

2.18 ГБ

В этой теме нет новых непрочитанных сообщений. Отряд Дельта / The Delta Force (1986) BDRip от Generalfilm

2 | 16

2.19 ГБ

В этой теме нет новых непрочитанных сообщений. Отряд Дельта / The Delta Force (1986) BDRip 1080 от Torrent-Xzona

0 | 4

4.32 ГБ

В этой теме нет новых непрочитанных сообщений. Отряд «Дельта» 2 / Delta Force 2: The Colombian Connection (1990) HDTVRip 1080p | P, A

26 | 0

8.62 ГБ

В этой теме нет новых непрочитанных сообщений. Delta Force: The Best / Отряд Дельта: Лучшее (2002) PC

75 | 10

664.65 МБ




Вы не можете начинать темы
Вы не можете отвечать на сообщения
Вы не можете редактировать свои сообщения
Вы не можете удалять свои сообщения
Вы не можете добавлять вложения

Перейти:  
 Вход
ppkBB3cker v.2 © 2008-2014 @ PPK
[ Time : 0.050s | 18 Queries | GZIP : Off ]

cron