img image001 image001 image001 image001 image001 image001 image001 image001 image001 image001 image001 image001 image001 image001 image001 image001

Planets Sun Sun Sun
Статистика раздачи
Автор: Nickolas3434 | Размер: 2.17 ГБ | Добавлен: 04 май 2016
Раздают: 3    Качают: 4
Скачать торрент
Скачать торрент
Описание торрента

СообщениеДобавлено: 04 май 2016 


Производство: США, Италия, TransWorld Entertainment (TWE)
Жанр: Ужасы, Фантастика
Режиссер: Дэвид Кит
Актеры: Уил Уитон, Кэтлин Джордон Грегори, Джон Шнайдер, Эми Уитон, Стив Карлайл, Клод Экинс, Стив Дэвис, Купер Хукаби, Мальколм Дэнар, Хоуп Норт
Описание:
В окрестностях одной из ферм в штате Теннесси как-то ночью упал метеорит. На следующую ночь из него вытекла странная коричневая жижа, тут же слившаяся с водой в ручье и смешавшаяся с почвой. Наутро поля покрылись буйной порослью и налились соком яблоки в садах. Вот только никто поначалу не заметил, что внутри плодов и овощей — гниль, черви и прочая ядовитая гадость. А когда заметили, то оказалось уже поздно…

Релиз от: K.E.N (NNM-CLUB)
Продолжительность: 01:30:37
Качество видео: BDRip-AVC
Перевод: Профессиональный двухголосый (НТВ+), авторский А.Гаврилов
Язык субтитров: Английский
Вид субтитров: Вшитые отключаемые
Видео: AVC, 1024x432 (2.35:1), 23.976 fps, 2 865 Kbps (0.270 bit/pixel)
Аудио #1: AC-3, 48.0 KHz, 2 ch, 192 Kbps, CBR (Russian) - двухголосый
Аудио #2: AC-3, 48.0 KHz, 2 ch, 192 Kbps, CBR (Russian) - авторский
Аудио #3: AC-3, 48.0 KHz, 2 ch, 192 Kbps, CBR (English) - оригинал
Формат : Matroska
Версия формата : Version 2
Размер файла : 2,17 Гбайт
Продолжительность : 1 ч. 30 м.
Общий поток : 3441 Кбит/сек
Дата кодирования : UTC 2016-05-02 23:12:00
Программа кодирования : mkvmerge v5.3.0 ('I could have danced') built on Feb 9 2012 10:38:07
Библиотека кодирования : libebml v1.2.3 + libmatroska v1.3.0
Attachment : Yes
Видео
Идентификатор : 1
Формат : AVC
Формат/Информация : Advanced Video Codec
Профиль формата : High@L4.1
Параметр CABAC формата : Да
Параметр ReFrames формата : 10 кадров
Идентификатор кодека : V_MPEG4/ISO/AVC
Продолжительность : 1 ч. 30 м.
Битрейт : 2865 Кбит/сек
Ширина : 1024 пикселя
Высота : 432 пикселя
Соотношение сторон : 2,40:1
Режим частоты кадров : Постоянный
Частота кадров : 23,976 кадра/сек
Цветовое пространство : YUV
Субдискретизация насыщенности : 4:2:0
Битовая глубина : 8 бит
Тип развёртки : Прогрессивная
Бит/(Пиксели*Кадры) : 0.270
Размер потока : 1,77 Гбайт (81%)
Библиотека кодирования : x264 core 146 r2538 121396c
Настройки программы : cabac=1 / ref=10 / deblock=1:-3:-3 / analyse=0x3:0x133 / me=umh / subme=10 / psy=1 / psy_rd=1.00:0.10 / mixed_ref=1 / me_range=32 / chroma_me=1 / trellis=2 / 8x8dct=1 / cqm=0 / deadzone=21,11 / fast_pskip=0 / chroma_qp_offset=-3 / threads=12 / lookahead_threads=2 / sliced_threads=0 / nr=0 / decimate=0 / interlaced=0 / bluray_compat=0 / constrained_intra=0 / bframes=8 / b_pyramid=2 / b_adapt=2 / b_bias=0 / direct=3 / weightb=1 / open_gop=0 / weightp=2 / keyint=240 / keyint_min=23 / scenecut=40 / intra_refresh=0 / rc=2pass / mbtree=0 / bitrate=2865 / ratetol=1.0 / qcomp=0.60 / qpmin=0 / qpmax=69 / qpstep=4 / cplxblur=20.0 / qblur=0.5 / ip_ratio=1.40 / pb_ratio=1.30 / aq=1:0.70
Default : Да
Forced : Нет
Аудио #1
Идентификатор : 2
Формат : AC-3
Формат/Информация : Audio Coding 3
Расширение режима : CM (complete main)
Параметр Endianness формата : Big
Идентификатор кодека : A_AC3
Продолжительность : 1 ч. 30 м.
Вид битрейта : Постоянный
Битрейт : 192 Кбит/сек
Каналы : 2 канала
Расположение каналов : Front: L R
Частота : 48,0 КГц
Битовая глубина : 16 бит
Метод сжатия : С потерями
Размер потока : 124 Мбайт (6%)
Заголовок : НТВ+
Язык : Russian
Default : Да
Forced : Нет
Аудио #2
Идентификатор : 3
Формат : AC-3
Формат/Информация : Audio Coding 3
Расширение режима : CM (complete main)
Параметр Endianness формата : Big
Идентификатор кодека : A_AC3
Продолжительность : 1 ч. 30 м.
Вид битрейта : Постоянный
Битрейт : 192 Кбит/сек
Каналы : 2 канала
Расположение каналов : Front: L R
Частота : 48,0 КГц
Битовая глубина : 16 бит
Метод сжатия : С потерями
Размер потока : 124 Мбайт (6%)
Заголовок : А. Гаврилов
Язык : Russian
Default : Нет
Forced : Нет
Аудио #3
Идентификатор : 4
Формат : AC-3
Формат/Информация : Audio Coding 3
Расширение режима : CM (complete main)
Параметр Endianness формата : Big
Идентификатор кодека : A_AC3
Продолжительность : 1 ч. 30 м.
Вид битрейта : Постоянный
Битрейт : 192 Кбит/сек
Каналы : 2 канала
Расположение каналов : Front: L R
Частота : 48,0 КГц
Битовая глубина : 16 бит
Метод сжатия : С потерями
Размер потока : 124 Мбайт (6%)
Язык : English
Default : Нет
Forced : Нет
Текст
Идентификатор : 5
Формат : UTF-8
Идентификатор кодека : S_TEXT/UTF8
Идентификатор кодека/Информация : UTF-8 Plain Text
Язык : English
Default : Нет
Forced : Нет

Скриншоты:



   Похожие торренты   Торрент   Размер 
В этой теме нет новых непрочитанных сообщений. Проклятие / The Curse (1987) BDRip | P2, A

3 | 0

1.46 ГБ

В этой теме нет новых непрочитанных сообщений. Проклятие / The Curse (1987) DVDRip | P2, A

106 | 16

1.46 ГБ

В этой теме нет новых непрочитанных сообщений. Проклятие / The Curse (1987) BDRemux 1080p | P2, A

10 | 2

17.34 ГБ

В этой теме нет новых непрочитанных сообщений. Проклятие 2: Укус / Curse II: The Bite (1989) BDRip | A

148 | 1

1.46 ГБ

В этой теме нет новых непрочитанных сообщений. Проклятие Чаки / Curse of Chucky (2013) BDRip-AVC от New-Team | D | Лицензия

85 | 5

1.45 ГБ

В этой теме нет новых непрочитанных сообщений. Проклятие 2: Укус / Curse II: The Bite (1989) BDRip 1080p от MediaClub | A

4 | 13

9.89 ГБ

В этой теме нет новых непрочитанных сообщений. Проклятие Чаки / Curse of Chucky (2013) BDRip-AVC от New-Team | D | Лицензия

34 | 2

2.19 ГБ




Вы не можете начинать темы
Вы не можете отвечать на сообщения
Вы не можете редактировать свои сообщения
Вы не можете удалять свои сообщения
Вы не можете добавлять вложения

Перейти:  
 Вход
ppkBB3cker v.2 © 2008-2014 @ PPK
[ Time : 0.030s | 16 Queries | GZIP : Off ]

cron