img image001 image001 image001 image001 image001 image001 image001 image001 image001 image001 image001 image001 image001 image001 image001 image001

Planets Sun Sun Sun
Статистика раздачи
Автор: Nickolas3434 | Размер: 1.45 ГБ | Добавлен: 09 май 2016
Раздают: 122    Качают: 10
Скачать торрент
Скачать торрент
Описание торрента

СообщениеДобавлено: 09 май 2016 


Информация о фильме
Название: Подтверждение / Конфирмация
Оригинальное название: The Confirmation
Год выхода: 2016
Жанр: драма, комедия
Режиссер: Боб Нельсон
В ролях: Джейден Либерер, Клайв Оуэн, Спенсер Древер, Мария Белло, Пэттон Освальт, Стивен Тоболовски, Майкл Эклунд, Райан Роббинс, Тим Блейк Нельсон, Роберт Форстер, Мэттью Модайн, Куинн Дюбуа, Лувия Петерсен, Гари Чок, Патрик Гилмор, Кэтрин Лок Хэггквист, Дженнифер Коппинг, Элиза Фариа, Джон Стюарт, Гленн Бек, Дин Рэй, Квеси Амеяу, Дэйв Коллетт, Скотт Пате, Том Пикетт
О фильме:
Восьмилетний Энтони вынужден провести выходные со своим алкоголиком-отцом, с которым его мать находится в разводе. Для них обоих — это нелегкое испытание, сопровождающееся чередой происшествий. Преодолевая трудности вместе, они осознают, сколь крепка связь между ними.

Производство: Канада / Bungalow Media + Entertainment, Lighthouse Pictures, Sapphire Fire Limited
Продолжительность: 01:41:21
Перевод: русские субтитры от kidkong
Дополнительно: в качестве эксперимента добавлена озвучка электронным голосом Максим. Кому не понравится, можно смотреть по старинке - в оригинале с русскими субтитрами.
Файл
Качество: HDRip-AVC
Формат: MP4
Видео: AVC, 1024x576 (16:9), 23.976 fps, 1660 kbps, 0.117 bit/pixel
Аудио #1: английский, AAC 5.1, 48 kHz, 192 kbps
Аудио #2: русский, AAC 2.0, 48 kHz, 196 kbps | Максим
Субтитры: русские, английские внешние, SRT
Формат : MPEG-4
Профиль формата : Base Media
Идентификатор кодека : isom
Размер файла : 1,45 Гбайт
Продолжительность : 1 ч. 41 м.
Режим общего битрейта : Переменный
Общий поток : 2052 Кбит/сек
Дата кодирования : UTC 2016-05-05 21:00:40
Дата пометки : UTC 2016-05-05 21:00:40
Программа кодирования : My MP4Box GUI 0.6.0.6
Видео
Идентификатор : 1
Формат : AVC
Формат/Информация : Advanced Video Codec
Профиль формата : High@L4.1
Параметр CABAC формата : Да
Параметр ReFrames формата : 7 кадров
Идентификатор кодека : avc1
Идентификатор кодека/Информация : Advanced Video Coding
Продолжительность : 1 ч. 41 м.
Битрейт : 1660 Кбит/сек
Максимальный битрейт : 5068 Кбит/сек
Ширина : 1024 пикселя
Высота : 576 пикселей
Соотношение сторон : 16:9
Режим частоты кадров : Постоянный
Частота кадров : 23,976 кадра/сек
Цветовое пространство : YUV
Субдискретизация насыщенности : 4:2:0
Битовая глубина : 8 бит
Тип развёртки : Прогрессивная
Бит/(Пиксели*Кадры) : 0.117
Размер потока : 1,17 Гбайт (81%)
Заголовок : confirmation_1024x576.h264
Библиотека кодирования : x264 core 142 r2479 dd79a61
Настройки программы : cabac=1 / ref=7 / deblock=0:0:0 / analyse=0x3:0 / me=umh / subme=9 / psy=1 / psy_rd=1.00:0.00 / mixed_ref=0 / me_range=24 / chroma_me=1 / trellis=0 / 8x8dct=1 / cqm=0 / deadzone=21,11 / fast_pskip=1 / chroma_qp_offset=-2 / threads=3 / lookahead_threads=1 / sliced_threads=0 / nr=0 / decimate=1 / interlaced=0 / bluray_compat=0 / constrained_intra=0 / bframes=7 / b_pyramid=2 / b_adapt=1 / b_bias=0 / direct=1 / weightb=1 / open_gop=0 / weightp=0 / keyint=240 / keyint_min=24 / scenecut=0 / intra_refresh=0 / rc_lookahead=0 / rc=2pass / mbtree=0 / bitrate=1660 / ratetol=1.0 / qcomp=0.60 / qpmin=0 / qpmax=69 / qpstep=4 / cplxblur=20.0 / qblur=0.5 / vbv_maxrate=50000 / vbv_bufsize=62500 / nal_hrd=none / filler=0 / ip_ratio=1.40 / pb_ratio=1.30 / aq=0
Дата кодирования : UTC 2016-05-05 21:00:40
Дата пометки : UTC 2016-05-05 21:02:29
Цветовой диапазон : Limited
Основные цвета : BT.709
Характеристики трансфера : BT.709
Коэффициенты матрицы : BT.709
Аудио #1
Идентификатор : 2
Формат : AAC
Формат/Информация : Advanced Audio Codec
Профиль формата : LC
Идентификатор кодека : 40
Продолжительность : 1 ч. 41 м.
Вид битрейта : Переменный
Битрейт : 192 Кбит/сек
Максимальный битрейт : 230 Кбит/сек
Каналы : 2 канала
Channel(s)_Original : 6 каналов
Расположение каналов : Front: L C R, Side: L R, LFE
Частота : 48,0 КГц
Метод сжатия : С потерями
Размер потока : 139 Мбайт (9%)
Заголовок : 6 ch AAC 192 kbps.aac
Дата кодирования : UTC 2016-05-05 21:01:46
Дата пометки : UTC 2016-05-05 21:02:29
Аудио #2
Идентификатор : 3
Формат : AAC
Формат/Информация : Advanced Audio Codec
Профиль формата : LC
Идентификатор кодека : 40
Продолжительность : 1 ч. 41 м.
Вид битрейта : Переменный
Битрейт : 196 Кбит/сек
Максимальный битрейт : 202 Кбит/сек
Каналы : 2 канала
Расположение каналов : Front: L R
Частота : 48,0 КГц
Метод сжатия : С потерями
Размер потока : 142 Мбайт (10%)
Заголовок : rus.aac
Дата кодирования : UTC 2016-05-05 21:02:14
Дата пометки : UTC 2016-05-05 21:02:29

Релиз от:



   Похожие торренты   Торрент   Размер 
В этой теме нет новых непрочитанных сообщений. Подтверждение / The Confirmation (2016) HDRip-AVC | L1

49 | 3

1.88 ГБ

В этой теме нет новых непрочитанных сообщений. Слушание / Подтверждение / Confirmation (2016) HDRip от MegaPeer | P

135 | 20

1.46 ГБ

В этой теме нет новых непрочитанных сообщений. Слушание / Подтверждение / Confirmation (2016) HDRip от MegaPeer | P

65 | 9

744.67 МБ

В этой теме нет новых непрочитанных сообщений. Подтверждение / The Confirmation (2016) WEB-DL 720p | L1

91 | 7

3.25 ГБ

В этой теме нет новых непрочитанных сообщений. Подтверждение / Конфирмация / The Confirmation (2016) WEB-DLRip от Portablius | L1

82 | 5

745.8 МБ

В этой теме нет новых непрочитанных сообщений. Подтверждение / The Confirmation (2016) BDRemux 1080p от ivandubskoj | L1

17 | 0

15.48 ГБ

В этой теме нет новых непрочитанных сообщений. Слушание / Подтверждение / Confirmation (2016) BDRip от HQCLUB

36 | 3

2.18 ГБ




Вы не можете начинать темы
Вы не можете отвечать на сообщения
Вы не можете редактировать свои сообщения
Вы не можете удалять свои сообщения
Вы не можете добавлять вложения

Перейти:  
 Вход
ppkBB3cker v.2 © 2008-2014 @ PPK
[ Time : 0.107s | 15 Queries | GZIP : Off ]

cron