img image001 image001 image001 image001 image001 image001 image001 image001 image001 image001 image001 image001 image001 image001 image001

Planets Sun Sun Sun
Статистика раздачи
Автор: Nickolas3434 | Размер: 2.9 ГБ | Добавлен: 10 май 2016
Раздают: 372    Качают: 17
Скачать торрент
Скачать торрент
Описание торрента

СообщениеДобавлено: 10 май 2016 


Страна: США
Жанр: Криминальная драма
Год выпуска: 1972
Продолжительность: 02:57:09


Перевод: Профессиональный (многоголосый закадровый)
Cубтитры: русские
Оригинальная аудиодорожка: английский


Режиссер: Фрэнсис Форд Коппола /Francis Ford Coppola
В ролях: Марлон Брандо, Аль Пачино, Джеймс Каан, Ричард Кастеллано, Дайэн Китон, Талия Шайр, Роберт Дювалл, Стерлинг Хэйден, Ричард Конте, Джон Марли, Аль Леттьери
Описание: Криминальная сага, повествующая о нью-йоркской сицилийской мафиозной семье Корлеоне. Фильм охватывает период 1945—1955 годов. Глава семьи, Дон Вито Корлеоне, выдаёт замуж свою дочь. В это время со Второй мировой войны возвращается его любимый сын Майкл. Майкл, герой войны, гордость семьи, не выражает желания заняться жестоким семейным бизнесом. Дон Корлеоне ведёт дела по старым правилам, но наступают иные времена, и появляются люди, желающие изменить сложившиеся порядки. На Дона Корлеоне совершается покушение.
Он выживает, но временно теряет возможность управлять делами семьи. Благополучие и даже выживание семьи поставлено под угрозу. И здесь Майклу приходится вмешаться. Ради семьи он совершает двойное убийство, что вынуждает его некоторое время скрываться в Италии. Там он женится, но при покушении на него погибает его молодая жена. Майкл возвращается в Нью-Йорк и всерьёз начинает заниматься делами семьи, сам становясь в итоге её главой.





Раздача от:
Качество видео: BDRip-AVC
Формат видео: MKV
Видео: AVC (H.264), 1449 Кбит/сек, 1024*576 (16:9), 23,976 к/сек
Аудио: AC-3, 448 Кбит/сек, 6 ch, Russian
Аудио 2: AC-3, 448 Кбит/сек, 6 ch, English
Формат субтитров: softsub (SRT)
Доп. информация о субтитрах: Русские, Английские
Общее
Уникальный идентификатор : 227596323894407412899605823388647223759 (0xAB3975217A213686A8C36404899CF1CF)
Полное имя : C:UsersШпетVideosКрестный отец(The Godfather) 1972.mkv
Формат : Matroska
Версия формата : Version 4 / Version 2
Размер файла : 2,90 Гбайт
Продолжительность : 2 ч. 57 м.
Общий поток : 2343 Кбит/сек
Дата кодирования : UTC 2016-05-09 14:40:23
Программа кодирования : mkvmerge v6.1.0 ('Old Devil') built on Mar 4 2013 09:10:42
Библиотека кодирования : libebml v1.3.0 + libmatroska v1.4.0
Видео
Идентификатор : 1
Формат : AVC
Формат/Информация : Advanced Video Codec
Профиль формата : High@L3.1
Параметр CABAC формата : Да
Параметр ReFrames формата : 5 кадров
Идентификатор кодека : V_MPEG4/ISO/AVC
Продолжительность : 2 ч. 57 м.
Битрейт : 1449 Кбит/сек
Ширина : 1024 пикселя
Высота : 576 пикселей
Соотношение сторон : 16:9
Режим частоты кадров : Постоянный
Частота кадров : 23,976 (24000/1001) кадра/сек
Цветовое пространство : YUV
Субдискретизация насыщенности : 4:2:0
Битовая глубина : 8 бит
Тип развёртки : Прогрессивная
Бит/(Пиксели*Кадры) : 0.102
Размер потока : 1,73 Гбайт (60%)
Библиотека кодирования : x264 core 148 r2638 7599210
Настройки программы : cabac=1 / ref=5 / deblock=1:-1:-1 / analyse=0x3:0x113 / me=umh / subme=8 / psy=1 / psy_rd=1.00:0.15 / mixed_ref=1 / me_range=16 / chroma_me=1 / trellis=1 / 8x8dct=1 / cqm=0 / deadzone=21,11 / fast_pskip=1 / chroma_qp_offset=-3 / threads=6 / lookahead_threads=1 / sliced_threads=0 / nr=0 / decimate=1 / interlaced=0 / bluray_compat=0 / constrained_intra=0 / bframes=3 / b_pyramid=2 / b_adapt=2 / b_bias=0 / direct=3 / weightb=1 / open_gop=0 / weightp=2 / keyint=240 / keyint_min=23 / scenecut=40 / intra_refresh=0 / rc_lookahead=50 / rc=2pass / mbtree=1 / bitrate=1449 / ratetol=1.0 / qcomp=0.60 / qpmin=0 / qpmax=69 / qpstep=4 / cplxblur=20.0 / qblur=0.5 / ip_ratio=1.40 / aq=1:1.00
Default : Да
Forced : Нет
Statistics Tags Issue : mkvmerge v8.5.2 ('Crosses') 32bit 2016-05-08 22:49:21 / mkvmerge v6.1.0 ('Old Devil') built on Mar 4 2013 09:10:42 2016-05-09 14:40:23
FromStats_BitRate : 1448468
FromStats_Duration : 02:57:09.118000000
FromStats_FrameCount : 254844
FromStats_StreamSize : 1924492312
Аудио #1
Идентификатор : 2
Формат : AC-3
Формат/Информация : Audio Coding 3
Расширение режима : CM (complete main)
Параметр Endianness формата : Big
Идентификатор кодека : A_AC3
Продолжительность : 2 ч. 57 м.
Вид битрейта : Постоянный
Битрейт : 448 Кбит/сек
Каналы : 6 каналов
Расположение каналов : Front: L C R, Side: L R, LFE
Частота : 48,0 КГц
Частота кадров : 31,250 кадров/сек (1536 spf)
Метод сжатия : С потерями
Размер потока : 568 Мбайт (19%)
Заголовок : MVO
Язык : Russian
Default : Да
Forced : Нет
Аудио #2
Идентификатор : 3
Формат : AC-3
Формат/Информация : Audio Coding 3
Расширение режима : CM (complete main)
Параметр Endianness формата : Big
Идентификатор кодека : A_AC3
Продолжительность : 2 ч. 57 м.
Вид битрейта : Постоянный
Битрейт : 448 Кбит/сек
Каналы : 6 каналов
Расположение каналов : Front: L C R, Side: L R, LFE
Частота : 48,0 КГц
Частота кадров : 31,250 кадров/сек (1536 spf)
Метод сжатия : С потерями
Размер потока : 568 Мбайт (19%)
Язык : English
Default : Нет
Forced : Нет
Текст #1
Идентификатор : 4
Формат : UTF-8
Идентификатор кодека : S_TEXT/UTF8
Идентификатор кодека/Информация : UTF-8 Plain Text
Язык : Russian
Default : Да
Forced : Нет
Текст #2
Идентификатор : 5
Формат : UTF-8
Идентификатор кодека : S_TEXT/UTF8
Идентификатор кодека/Информация : UTF-8 Plain Text
Язык : English
Default : Нет
Forced : Нет





   Похожие торренты   Торрент   Размер 
В этой теме нет новых непрочитанных сообщений. Крестный отец / The Godfather (1972) BDRip - AVC

14 | 27

3.6 ГБ

В этой теме нет новых непрочитанных сообщений. Крестный отец / The Godfather (1972) BDRip от HQCLUB

494 | 22

2.9 ГБ

В этой теме нет новых непрочитанных сообщений. Крестный отец / The Godfather (1972) BDRip 720p | 60 fps

232 | 22

21.4 ГБ

В этой теме нет новых непрочитанных сообщений. Крестный отец / The Godfather (1972) BDRip от Shevon

8 | 4

6 ГБ

В этой теме нет новых непрочитанных сообщений. Крестный отец / The Godfather (1972) BDRip 1080p

73 | 5

7.59 ГБ

В этой теме нет новых непрочитанных сообщений. Крестный отец / The Godfather (1972) BDRip 720p | D, P, P2, A, L

35 | 30

28.18 ГБ

В этой теме нет новых непрочитанных сообщений. Крестный отец / The Godfather (1972) BDRip-AVC 720p от HAZARD'A

105 | 11

2.89 ГБ




Вы не можете начинать темы
Вы не можете отвечать на сообщения
Вы не можете редактировать свои сообщения
Вы не можете удалять свои сообщения
Вы не можете добавлять вложения

Перейти:  
Для Мосгорсуда, Роскомнадзора и рекламодателей: mosgorsud-torrent[собачка]yandex.ru
 Вход
ppkBB3cker v.2 © 2008-2014 @ PPK
[ Time : 0.059s | 17 Queries | GZIP : Off ]

cron