img image001 image001 image001 image001 image001 image001 image001 image001 image001 image001 image001 image001 image001 image001 image001

Planets Sun Sun Sun
Статистика раздачи
Автор: Nickolas3434 | Размер: 7 ГБ | Добавлен: 27 май 2016
Раздают: 0    Качают: 1
Скачать торрент
Скачать торрент
Описание торрента

СообщениеДобавлено: 27 май 2016 


Информация о фильме
Название: Чудо-пляж
Оригинальное название: Miracle Beach
Год выхода: 1992
Жанр: Комедия, мелодрама
Режиссер: Скотт Снайдер
В ролях: Дин Кэмерон, Эми Доленц, Фелисити Ватерман, Брайан Перри, Алексис Аркетт, Пэт Морита, Аллен Гарфилд, Мартин Мулл, Винсент Скьявелли, Брэд Грюнберг
О фильме:
Скотти, выгнанный с работы, лишившийся жилья, заставший свою подружку в постели с другим, отвергнутый прекрасной девушкой, в которую влюбился с первого взгляда, сидит на пляже рядом с бомжом. Тот, разжалобившись, дарит ему старую бутылку и одеяло. Тем временем повелитель джинов выписывает командировку на Землю симпатичной подчиненной. Пленницей подаренной Скотти бутылки она и оказалась…

Страна: США
Студия: Motion Picture Corporation of America
Продолжительность: 01:27:42
Перевод: Профессиональный двухголосый, любительский одноголосый
Файл
Кодек: x264
Качество: BDRip 720p
Видео: MPEG-4 AVC, 10.4 Mбит/с, 1280x688, 23.976 кадр/с
Аудио #1: AC3, 2 ch, 192 Кбит/с | Профессиональный двухголосый (НТВ+)
Аудио #2: AC3, 2 ch, 192 Кбит/с | Любительский одноголосый (Алладин 99)
Аудио #3: AC3, 2 ch, 640 Кбит/с | Английский
Общее
Уникальный идентификатор : 207315818232620468851215905381657520252 (0x9BF793009A172488992D723014B6A87C)
Полное имя : Miracle.Beach.1992.BDRip.720p.mkv
Формат : Matroska
Версия формата : Version 4 / Version 2
Размер файла : 7,00 Гбайт
Продолжительность : 1 ч. 27 м.
Общий поток : 11,4 Мбит/сек
Название фильма : Miracle Beach
Режиссёр : Skott Snider
Дата кодирования : UTC 2016-05-26 05:57:17
Программа кодирования : mkvmerge v7.7.0 ('Six Voices') 32bit built on Feb 28 2015 23:23:00
Библиотека кодирования : libebml v1.3.1 + libmatroska v1.4.2
Attachements : cover.jpg
Release : Koenig
DURATION : 01:27:42.016000000
NUMBER_OF_FRAMES : 164438
NUMBER_OF_BYTES : 420961280
_STATISTICS_WRITING_APP : mkvmerge v7.7.0 ('Six Voices') 32bit built on Feb 28 2015 23:23:00
_STATISTICS_WRITING_DATE_UTC : 2016-05-26 05:57:17
_STATISTICS_TAGS : BPS DURATION NUMBER_OF_FRAMES NUMBER_OF_BYTES
Видео
Идентификатор : 1
Формат : AVC
Формат/Информация : Advanced Video Codec
Профиль формата : High@L4.1
Параметр CABAC формата : Да
Параметр ReFrames формата : 8 кадров
Идентификатор кодека : V_MPEG4/ISO/AVC
Продолжительность : 1 ч. 27 м.
Битрейт : 10,4 Мбит/сек
Ширина : 1280 пикселей
Высота : 688 пикселей
Соотношение сторон : 1,85:1
Режим частоты кадров : Постоянный
Частота кадров : 23,976 кадра/сек
Цветовое пространство : YUV
Субдискретизация насыщенности : 4:2:0
Битовая глубина : 8 бит
Тип развёртки : Прогрессивная
Бит/(Пиксели*Кадры) : 0.493
Размер потока : 6,23 Гбайт (89%)
Библиотека кодирования : x264 core 146 r2538 121396c
Настройки программы : cabac=1 / ref=8 / deblock=1:-3:-3 / analyse=0x3:0x133 / me=umh / subme=10 / psy=1 / psy_rd=0.95:0.00 / mixed_ref=1 / me_range=32 / chroma_me=1 / trellis=2 / 8x8dct=1 / cqm=0 / deadzone=21,11 / fast_pskip=0 / chroma_qp_offset=-2 / threads=3 / lookahead_threads=1 / sliced_threads=0 / nr=0 / decimate=1 / interlaced=0 / bluray_compat=0 / constrained_intra=0 / bframes=11 / b_pyramid=2 / b_adapt=2 / b_bias=0 / direct=3 / weightb=1 / open_gop=0 / weightp=2 / keyint=240 / keyint_min=23 / scenecut=40 / intra_refresh=0 / rc_lookahead=40 / rc=2pass / mbtree=1 / bitrate=10399 / ratetol=1.0 / qcomp=0.60 / qpmin=10 / qpmax=51 / qpstep=4 / cplxblur=20.0 / qblur=0.5 / vbv_maxrate=50000 / vbv_bufsize=62500 / nal_hrd=none / filler=0 / ip_ratio=1.40 / aq=1:1.00
Default : Да
Forced : Нет
Аудио #1
Идентификатор : 2
Формат : AC-3
Формат/Информация : Audio Coding 3
Расширение режима : CM (complete main)
Параметр Endianness формата : Big
Идентификатор кодека : A_AC3
Продолжительность : 1 ч. 27 м.
Вид битрейта : Постоянный
Битрейт : 192 Кбит/сек
Каналы : 2 канала
Расположение каналов : Front: L R
Частота : 48,0 КГц
Метод сжатия : С потерями
Размер потока : 120 Мбайт (2%)
Заголовок : DVO - НТВ+
Язык : Russian
Default : Да
Forced : Нет
Аудио #2
Идентификатор : 3
Формат : AC-3
Формат/Информация : Audio Coding 3
Расширение режима : CM (complete main)
Параметр Endianness формата : Big
Идентификатор кодека : A_AC3
Продолжительность : 1 ч. 27 м.
Вид битрейта : Постоянный
Битрейт : 192 Кбит/сек
Каналы : 2 канала
Расположение каналов : Front: L R
Частота : 48,0 КГц
Метод сжатия : С потерями
Размер потока : 120 Мбайт (2%)
Заголовок : VO - Алладин 99
Язык : Russian
Default : Нет
Forced : Нет
Аудио #3
Идентификатор : 4
Формат : AC-3
Формат/Информация : Audio Coding 3
Расширение режима : CM (complete main)
Параметр Endianness формата : Big
Идентификатор кодека : A_AC3
Продолжительность : 1 ч. 27 м.
Вид битрейта : Постоянный
Битрейт : 640 Кбит/сек
Каналы : 2 канала
Расположение каналов : Front: L R
Частота : 48,0 КГц
Метод сжатия : С потерями
Размер потока : 401 Мбайт (6%)
Язык : English
Default : Нет
Forced : Нет
Меню
00:00:00.000 : :00:00:00.000
00:08:36.015 : :00:08:36.015
00:17:32.176 : :00:17:32.176
00:30:16.898 : :00:30:16.898
00:43:37.240 : :00:43:37.240
00:54:06.869 : :00:54:06.869
01:03:58.293 : :01:03:58.293
01:19:35.145 : :01:19:35.145



   Похожие торренты   Торрент   Размер 
В этой теме нет новых непрочитанных сообщений. Чудо-пляж / Miracle Beach (1992) BDRip от Koenig | P2

8 | 3

1.45 ГБ

В этой теме нет новых непрочитанных сообщений. Чудо Коквилла / The Cokeville Miracle (2015) BDRip 720p | L

48 | 5

3.88 ГБ

В этой теме нет новых непрочитанных сообщений. Чудо на 34-ой улице / Miracle on 34th Street (1994) BDRip 720p от Element team

6 | 2

2.19 ГБ

В этой теме нет новых непрочитанных сообщений. Чудо в камере №7 / Miracle in Cell No.7 / Number 7 Room's Gift / 7 Beonbangui Seonmool (2012) 720p BDRip от BTT-TEAM

2 | 2

7.26 ГБ

В этой теме нет новых непрочитанных сообщений. Чудо / Miracle (2004) BDRip от HQ-VIDEO

1 | 3

2.55 ГБ

В этой теме нет новых непрочитанных сообщений. Чудо / Miracle (2004) BDRip-AVC от ExKinoRay

9 | 3

3.5 ГБ

В этой теме нет новых непрочитанных сообщений. Сотворившая чудо / The Miracle Worker (1962) HDTVRip 720p | P2

11 | 0

4.49 ГБ




Вы не можете начинать темы
Вы не можете отвечать на сообщения
Вы не можете редактировать свои сообщения
Вы не можете удалять свои сообщения
Вы не можете добавлять вложения

Перейти:  
Для Мосгорсуда, Роскомнадзора и рекламодателей: mosgorsud-torrent[собачка]yandex.ru
 Вход
ppkBB3cker v.2 © 2008-2014 @ PPK
[ Time : 0.041s | 16 Queries | GZIP : Off ]

Торрент трекер RUTOR.IN, Не можете зайти на rutor.org? Какой новый адрес рутор? Какое зеркало рутор? Не работает rutor.org и зеркала? Тогда наш торрент специально для вас. Rutor.in неофициальное зеркало rutor. В случае если у Вас заблокирован rutor или вдруг Вы не можете на него зайти, то Вы без труда сможете скачать бесплатно и без рекламы последние новинки кино, игр, сериалов и прочего у нас, на Rutor.in. Не нужно использовать прокси, чтобы зайти на рутор, достаточно воспользоваться нашим ресурсом. Все новые фильмы, игры, сериалы, книги и музыка за 2013 и 2014 годы через торрент бесплатно. Скачивайте фильмы в хорошем качестве, игры для пк, xbox, playstation без регистрации. У нас вы найдете новые Зарубежные сериалы и Русские сериалы 2013, 2014, 2015 годов. Оставайтесь с нами, качайте любимые фильмы, игры, сериалы, книги и музыку.
cron