img image001 image001 image001 image001 image001 image001 image001 image001 image001 image001 image001 image001 image001 image001 image001 image001

Planets Sun Sun Sun
Статистика раздачи
Автор: Nickolas3434 | Размер: 5.37 ГБ | Добавлен: 04 июн 2016
Раздают: 15    Качают: 0
Скачать торрент
Скачать торрент
Описание торрента

СообщениеДобавлено: 04 июн 2016 

Гинденбург

The Hindenburg

«The truth at last? What really happened to The Hindenburg?»



Страна: США
Жанр: триллер, драма, приключения, история
Год выпуска: 1975
Продолжительность: 02:05:29
Перевод: 2 x Профессиональный (многоголосый, закадровый), Авторский (Живов), Оригинальный
Субтитры: английские.


Режиссер: Роберт Уайз / Robert Wise


В ролях: Джордж К. Скотт (Ritter), Энн Бэнкрофт (The Countess), Уильям Этертон (Boerth), Рой Тиннес (Martin Vogel), Гиг Янг (Edward Douglas), Бёрджесс Мередит (Emilio Pajetta), Чарльз Дёрнинг (Captain Pruss), Ричард А. Дайсарт (Lehman), Роберт Клэри (Joe Spah), Рене Обержонуа (Major Napier), Питер Донат (Reed Channing), Алан Оппенхаймер (Albert Breslau)


Описание: Фильм рассказывает о гибели самого крупного воздушного судна двадцатого века, огромного дирижабля-авианосца «Гинденбург», построенного как символ новой гитлеровской Германии. Под командованием Макса Прусса в 1937 году дирижабль отправился в своё последнее путешествие из Германии в Америку. Желая продемонстрировать американцам свою мощь, показав им «Гинденбург», никто из немецкого командования и не подозревал, что на его борту находится саботажник, планирующий взорвать воздушную гордость Германии.



MPAA: PG - Рекомендуется присутствие родителей


Семпл


Качество: BDRip
Контейнер: MKV
Видео: AVC, 1280x544 (2.35:1), 5240 kbps, 23,976 fps, 0,314 bpp
Аудио №1: русский / AC3 / 2.0 / 48 kHz / 192 kbps
Аудио №2: русский / AC3 / 2.0 / 48 kHz / 192 kbps
Аудио №3: русский / AC3 / 2.0 / 48 kHz / 192 kbps Живов
Аудио №4: английский / AC3 / 2.0 / 48 kHz / 192 kbps
Навигация по главам: есть


*****************************************************************************
x264 [info]: frame I:1196 Avg QP:16.65 size: 78862
x264 [info]: frame P:29297 Avg QP:18.00 size: 45439
x264 [info]: frame B:150033 Avg QP:19.74 size: 24070
*****************************************************************************
Format : Matroska
Format version : Version 2
File size : 5.37 GiB
Duration : 2h 5mn
Overall bit rate : 6 130 Kbps
Movie name : = Гинденбург / The Hindenburg (1975) BDRip 720p by SC Kosmos =
Encoded date : UTC 2016-05-30 09:11:14
Writing application : mkvmerge v5.8.0 ('No Sleep / Pillow') built on Sep 2 2012 15:37:04
Writing library : libebml v1.2.3 + libmatroska v1.3.0
Attachment : Yes
Video
ID : 1
Format : AVC
Format/Info : Advanced Video Codec
Format profile : High@L4.1
Format settings, CABAC : Yes
Format settings, ReFrames : 12 frames
Codec ID : V_MPEG4/ISO/AVC
Duration : 2h 5mn
Bit rate : 5 240 Kbps
Width : 1 280 pixels
Height : 544 pixels
Display aspect ratio : 2.35:1
Frame rate : 23.976 fps
Color space : YUV
Chroma subsampling : 4:2:0
Bit depth : 8 bits
Scan type : Progressive
Bits/(Pixel*Frame) : 0.314
Stream size : 4.59 GiB (85%)
Title : Гинденбург / The Hindenburg (1975) BDRip 720p by SC Kosmos
Writing library : x264 core 146 r2538 121396c
Encoding settings : cabac=1 / ref=12 / deblock=1:-3:-3 / analyse=0x3:0x113 / me=umh / subme=11 / psy=1 / psy_rd=1.00:0.00 / mixed_ref=1 / me_range=32 / chroma_me=1 / trellis=2 / 8x8dct=1 / cqm=0 / deadzone=21,11 / fast_pskip=0 / chroma_qp_offset=-2 / threads=12 / lookahead_threads=3 / sliced_threads=0 / nr=0 / decimate=1 / interlaced=0 / bluray_compat=0 / constrained_intra=0 / bframes=14 / b_pyramid=2 / b_adapt=2 / b_bias=0 / direct=3 / weightb=1 / open_gop=0 / weightp=2 / keyint=240 / keyint_min=23 / scenecut=40 / intra_refresh=0 / rc_lookahead=40 / rc=crf / mbtree=0 / crf=18.0 / qcomp=0.60 / qpmin=0 / qpmax=69 / qpstep=4 / vbv_maxrate=50000 / vbv_bufsize=62500 / crf_max=0.0 / nal_hrd=none / filler=0 / ip_ratio=1.40 / pb_ratio=1.30 / aq=1:1.00
Language : English
Default : Yes
Forced : No
Audio #1
ID : 2
Format : AC-3
Format/Info : Audio Coding 3
Mode extension : CM (complete main)
Codec ID : A_AC3
Duration : 2h 5mn
Bit rate mode : Constant
Bit rate : 192 Kbps
Channel(s) : 2 channels
Channel positions : Front: L R
Sampling rate : 48.0 KHz
Bit depth : 16 bits
Compression mode : Lossy
Stream size : 172 MiB (3%)
Title : MVO
Language : Russian
Default : Yes
Forced : No
Audio #2
ID : 3
Format : AC-3
Format/Info : Audio Coding 3
Mode extension : CM (complete main)
Codec ID : A_AC3
Duration : 2h 5mn
Bit rate mode : Constant
Bit rate : 192 Kbps
Channel(s) : 2 channels
Channel positions : Front: L R
Sampling rate : 48.0 KHz
Bit depth : 16 bits
Compression mode : Lossy
Stream size : 172 MiB (3%)
Title : MVO
Language : Russian
Default : No
Forced : No
Audio #3
ID : 4
Format : AC-3
Format/Info : Audio Coding 3
Mode extension : CM (complete main)
Codec ID : A_AC3
Duration : 2h 5mn
Bit rate mode : Constant
Bit rate : 192 Kbps
Channel(s) : 2 channels
Channel positions : Front: L R
Sampling rate : 48.0 KHz
Bit depth : 16 bits
Compression mode : Lossy
Stream size : 172 MiB (3%)
Title : AVO ( Живов )
Language : Russian
Default : No
Forced : No
Audio #4
ID : 5
Format : AC-3
Format/Info : Audio Coding 3
Mode extension : CM (complete main)
Codec ID : A_AC3
Duration : 2h 5mn
Bit rate mode : Constant
Bit rate : 192 Kbps
Channel(s) : 2 channels
Channel positions : Front: L R
Sampling rate : 48.0 KHz
Bit depth : 16 bits
Compression mode : Lossy
Stream size : 172 MiB (3%)
Language : English
Default : No
Forced : No
Text
ID : 6
Format : PGS
Muxing mode : zlib
Codec ID : S_HDMV/PGS
Codec ID/Info : The same subtitle format used on BDs/HD-DVDs
Language : English
Default : No
Forced : No
Menu
00:00:00.000 : en:00:00:00.000
00:06:07.242 : en:00:06:07.242
00:09:59.849 : en:00:09:59.849
00:14:44.592 : en:00:14:44.592
00:21:14.190 : en:00:21:14.190
00:27:46.707 : en:00:27:46.707
00:39:23.027 : en:00:39:23.027
00:47:34.310 : en:00:47:34.310
00:57:23.482 : en:00:57:23.482
01:07:55.863 : en:01:07:55.863
01:13:48.341 : en:01:13:48.341
01:23:08.317 : en:01:23:08.317
01:31:32.404 : en:01:31:32.404
01:37:50.239 : en:01:37:50.239
01:45:10.095 : en:01:45:10.095
02:03:52.634 : en:02:03:52.634







Исходник немецкий BluRay. Звуковые дороги подогнал как мог, к сожалению, я не волшебник.
Если есть "косяки", извиняйте.



   Похожие торренты   Торрент   Размер 
В этой теме нет новых непрочитанных сообщений. Гинденбург / The Hindenburg (1975) HDRip от Koenig | P

6 | 0

1.45 ГБ

В этой теме нет новых непрочитанных сообщений. Гинденбург / The Hindenburg (1975) DVDRip от Киномагия l P

248 | 10

2.2 ГБ

В этой теме нет новых непрочитанных сообщений. Гинденбург: Последний полёт / Hindenburg (2011) BDRip 720p | D

15 | 3

7.8 ГБ

В этой теме нет новых непрочитанных сообщений. Гинденбург: Последний полёт / Hindenburg (2011) BDRip | D

13 | 9

3.02 ГБ

В этой теме нет новых непрочитанных сообщений. Гинденбург: Последний полёт / Hindenburg (2011) BDRip 1080p | D

27 | 8

17.77 ГБ

В этой теме нет новых непрочитанных сообщений. Гинденбург: Последний полет / Hindenburg (2011) BDRip-AVC от Rulya74

150 | 13

2.18 ГБ

В этой теме нет новых непрочитанных сообщений. Гинденбург: Последний полет / Hindenburg (2011) BDRemux 1080p | D

0 | 3

20.79 ГБ




Вы не можете начинать темы
Вы не можете отвечать на сообщения
Вы не можете редактировать свои сообщения
Вы не можете удалять свои сообщения
Вы не можете добавлять вложения

Перейти:  
 Вход
ppkBB3cker v.2 © 2008-2014 @ PPK
[ Time : 0.036s | 21 Queries | GZIP : Off ]

cron