img image001 image001 image001 image001 image001 image001 image001 image001 image001 image001 image001 image001 image001 image001 image001

Planets Sun Sun Sun
Статистика раздачи
Автор: Снежана | Размер: 4.38 ГБ | Добавлен: 21 июл 2013
Раздают: 32    Качают: 21
Скачать торрент
Скачать торрент
Описание торрента

СообщениеДобавлено: 21 июл 2013 

#77

Информация о фильме
Название: Жемчужина Нила
Оригинальное название: The Jewel of the Nile
Год выхода: 1985
Жанр: боевик, мелодрама, комедия, приключения
Режиссер: Льюис Тиг / Lewis Teague
В ролях: Майкл Дуглас / Michael Douglas, Кэтлин Тернер / Kathleen Turner, Дэнни Де Вито / Danny De Vito, Спирос Фокас / Spiros Focas, Эвнер Айзенберг / Avner Eisenberg, Пол Дэвид Маджид / Paul David Magid

О фильме:
Джэк и Джоан живут спокойной, размеренной жизнью богатых бездельников. У них есть все, что могут позволить деньги: яхта, виллы, прислуга. Но им скучно. Скучно друг с другом, и этим обществом. Что бы развлечь себя, Джоан принимает приглашение арабского шейха посетить его восточную резиденцию. Но сказка обернулась кошмаром, арабский красавец похищает Джоан, и требует выкуп - "Жемчужину". Джэк, заручившись поддержкой, своего нового партнера Ральфа, принимает непростое решение, спасти Джоан. Но есть одно осложнение, Джэку хочет отомстить старый напарник...


Выпущено: США
Продолжительность: 01:45:56
Перевод: Профессиональный (многоголосый, закадровый)

Файл
Кодек: x264
Качество: BDRip 1080p
Видео: 1920x816, 5463 Kbps, 23.976 fps
Звук: 48 kHz, AC3, 6c, 448 kbps
Cубтитры: русские, английские (спасибо vinalord)
Скачать:

General
Unique ID : 227221973851412804978237454250944813949 (0xAAF15C3FA80FAE53BD7D56345480DB7D)
Complete name : Жемчужина Нила.1985.BDRip.1080p.MVO.mkv
Format : Matroska
Format version : Version 2
File size : 4.38 GiB
Duration : 1h 45mn
Overall bit rate : 5 913 Kbps
Movie name : Жемчужина Нила.1985
Encoded date : UTC 2012-04-01 05:43:44
Writing application : mkvmerge v5.4.0 ('Piper') built on Mar 30 2012 09:27:52
Writing library : libebml v1.2.3 + libmatroska v1.3.0

Video
ID : 1
Format : AVC
Format/Info : Advanced Video Codec
Format profile : High@L4.1
Format settings, CABAC : Yes
Format settings, ReFrames : 5 frames
Codec ID : V_MPEG4/ISO/AVC
Duration : 1h 45mn
Bit rate : 5 463 Kbps
Width : 1 920 pixels
Height : 816 pixels
Display aspect ratio : 2.35:1
Frame rate : 23.976 fps
Color space : YUV
Chroma subsampling : 4:2:0
Bit depth : 8 bits
Scan type : Progressive
Bits/(Pixel*Frame) : 0.145
Stream size : 3.96 GiB (90%)
Title : Rip by Boriy
Writing library : x264 core 122 r2184 5c85e0a
Encoding settings : cabac=1 / ref=5 / deblock=1:0:0 / analyse=0x3:0x113 / me=umh / subme=10 / psy=1 / psy_rd=1.00:0.10 / mixed_ref=1 / me_range=32 / chroma_me=1 / trellis=2 / 8x8dct=1 / cqm=0 / deadzone=21,11 / fast_pskip=0 / chroma_qp_offset=-3 / threads=12 / sliced_threads=0 / nr=0 / decimate=1 / interlaced=0 / bluray_compat=0 / constrained_intra=0 / bframes=5 / b_pyramid=2 / b_adapt=2 / b_bias=0 / direct=3 / weightb=1 / open_gop=0 / weightp=2 / keyint=240 / keyint_min=23 / scenecut=40 / intra_refresh=0 / rc_lookahead=60 / rc=2pass / mbtree=1 / bitrate=5463 / ratetol=1.0 / qcomp=0.60 / qpmin=0 / qpmax=69 / qpstep=4 / cplxblur=20.0 / qblur=0.5 / ip_ratio=1.40 / aq=1:1.00
Language : English
Default : Yes
Forced : No

Audio
ID : 2
Format : AC-3
Format/Info : Audio Coding 3
Mode extension : CM (complete main)
Codec ID : A_AC3
Duration : 1h 45mn
Bit rate mode : Constant
Bit rate : 448 Kbps
Channel(s) : 6 channels
Channel positions : Front: L C R, Side: L R, LFE
Sampling rate : 48.0 KHz
Bit depth : 16 bits
Compression mode : Lossy
Stream size : 339 MiB (8%)
Title : Профессиональный (многоголосый, закадровый)
Language : Russian
Default : Yes
Forced : No

Text #1
ID : 3
Format : UTF-8
Codec ID : S_TEXT/UTF8
Codec ID/Info : UTF-8 Plain Text
Language : Russian
Default : No
Forced : No

Text #2
ID : 4
Format : UTF-8
Codec ID : S_TEXT/UTF8
Codec ID/Info : UTF-8 Plain Text
Language : English
Default : No
Forced : No

Menu
00:00:00.000 : en:
00:03:45.850 : en:
00:08:14.285 : en:
00:11:29.647 : en:
00:16:04.421 : en:
00:19:49.313 : en:
00:23:49.386 : en:
00:24:51.114 : en:
00:27:00.243 : en:
00:30:28.743 : en:
00:37:11.938 : en:
00:44:10.105 : en:
00:52:47.789 : en:
00:57:11.344 : en:
01:02:17.400 : en:
01:08:43.828 : en:
01:10:49.954 : en:
01:13:52.928 : en:
01:16:17.072 : en:
01:23:58.199 : en:
01:26:23.136 : en:
01:29:59.685 : en:
01:34:14.315 : en:
01:40:56.717 : en:
01:45:54.431 : en:



   Похожие торренты   Торрент   Размер 
В этой теме нет новых непрочитанных сообщений. Жемчужина Нила / The Jewel Of The Nile (1985) BDRip 1080p | P, P2, A

39 | 13

12.82 ГБ

В этой теме нет новых непрочитанных сообщений. Жемчужина Нила / The Jewel of the Nile (1985) BDRip 1080p от BT-Club

2 | 23

8.29 ГБ

В этой теме нет новых непрочитанных сообщений. Жемчужина Нила / The Jewel of the Nile (1985) BDRip от HQ-ViDEO

69 | 14

1.6 ГБ

В этой теме нет новых непрочитанных сообщений. Жемчужина Нила / The Jewel of the Nile (1985) BDRip от HQCLUB

125 | 10

2.18 ГБ

В этой теме нет новых непрочитанных сообщений. Роман с камнем + Жемчужина Нила / Romancing the Stone + The Jewel of the Nile (1984-1985) BDRip 1080p от NoLimits-Team

21 | 7

15.89 ГБ

В этой теме нет новых непрочитанных сообщений. Жемчужина Нила / The Jewel of the Nile (1985) HDRip

12 | 3

2.19 ГБ

В этой теме нет новых непрочитанных сообщений. Жемчужина Нила / The Jewel Of The Nile (1985) DVD9

2 | 3

6.86 ГБ




Вы не можете начинать темы
Вы не можете отвечать на сообщения
Вы не можете редактировать свои сообщения
Вы не можете удалять свои сообщения
Вы не можете добавлять вложения

Перейти:  
Для Мосгорсуда, Роскомнадзора и рекламодателей: mosgorsud-torrent[собачка]yandex.ru
 Вход
ppkBB3cker v.2 © 2008-2014 @ PPK
[ Time : 0.312s | 18 Queries | GZIP : Off ]

cron