img image001 image001 image001 image001 image001 image001 image001 image001 image001 image001 image001 image001 image001 image001 image001

Planets Sun Sun Sun

COVID-19 - Последняя информация о коронавирусе на сайте Минздрава


Статистика раздачи
Автор: PriZraK | Размер: 1.47 ГБ | Добавлен: 23 июн 2016
Раздают: 2    Качают: 0
Скачать торрент
Скачать торрент
Описание торрента

СообщениеДобавлено: 23 июн 2016 


Ради любви к игре / For Love of the Game
Страна: США
Производство: Universal Pictures, Tig Productions, Mirage Enterprises, Beacon Pictures
Год выпуска: 1999
Жанр: драма, мелодрама, спорт
Продолжительность: 02:17:56
Режиссер: Сэм Рэйми
Авторы сценария: Дэна Стивенс, Майкл Шаара
В ролях: Кевин Костнер, Келли Престон, Джон Си Райли, Джена Мэлоун, Брайан Кокс, Эдди Даддио, Дж.К. Симмонс, Вин Скалли, Стив Лайонс
Описание: Никто не играет в бейсбол лучше, чем Билли Чэпел. Он — игрок экстра-класса и настоящая суперзвезда. Миллионы американских мужчин и женщин боготворили его. Самый старший и опытный игрок в своей команде, Билли уже двадцать лет подряд выступает за «Детройтских тигров». Однако он понимает, что рано или поздно настанет время уйти из игры, которая стала смыслом его жизни. Две страшные новости приходят одновременно. Билли хотят «продать» другой команде, что для него крайне тяжело. Мало этого, его возлюбленная неожиданно покидает его… Теперь Билли должен доказать всем, что он по-прежнему суперзвезда бейсбола и, конечно, вернуть свою девушку...

Перевод: Профессиональный (многоголосый, закадровый)
Субтитры: нет

Качество: HD-DVDRip
Формат: АVI
Видео кодек: XviD
Аудио кодек: АС3
Видео: 704x304 (2.35:1), 23.976 fps, XviD ~1 321 kbps avg, 0.257 bit/pixel
Аудио: 48.0 kHz, AC3 Dolby Digital, 2/0 (L,R) ch, ~192 kbps
Бюджет: $80 000 000
Дата премьеры (мир): 15 сентября 1999
релиз на DVD: 21 октября 2008, «Мьюзик-Трейд»
General
Complete name : For Love of the Game_HDDVDRip_RG_All_Films.avi
Format : AVI
Format/Info : Audio Video Interleave
File size : 1.47 GiB
Duration : 2h 17mn
Overall bit rate : 1 522 Kbps
Writing application : VirtualDubMod 1.5.10.3 | (build 2550/release)
Writing library : VirtualDubMod build 2550/release
Video
ID : 0
Format : MPEG-4 Visual
Format profile : Advanced Simple@L5
Format settings, BVOP : Yes
Format settings, QPel : No
Format settings, GMC : No warppoints
Format settings, Matrix : Custom
Codec ID : XVID
Codec ID/Hint : XviD
Duration : 2h 17mn
Bit rate : 1 321 Kbps
Width : 704 pixels
Height : 304 pixels
Display aspect ratio : 2.35:1
Frame rate : 23.976 fps
Color space : YUV
Chroma subsampling : 4:2:0
Bit depth : 8 bits
Scan type : Progressive
Compression mode : Lossy
Bits/(Pixel*Frame) : 0.257
Stream size : 1.27 GiB (87%)
Writing library : XviD 1.2.1 (UTC 2008-12-04)
Audio
ID : 1
Format : AC-3
Format/Info : Audio Coding 3
Mode extension : CM (complete main)
Codec ID : 2000
Duration : 2h 17mn
Bit rate mode : Constant
Bit rate : 192 Kbps
Channel(s) : 2 channels
Channel positions : Front: L R
Sampling rate : 48.0 KHz
Bit depth : 16 bits
Compression mode : Lossy
Stream size : 189 MiB (13%)
Alignment : Split accross interleaves
Interleave, duration : 42 ms (1.00 video frame)
Interleave, preload duration : 500 ms


   Похожие торренты   Торрент   Размер 
В этой теме нет новых непрочитанных сообщений. Все ради любви / Anything for Love (2016) HDTV 720p | L

24 | 0

2.11 ГБ

В этой теме нет новых непрочитанных сообщений. Моя реинкарнация в отомэ-игре в качестве главной злодейки / Otome Game no Hametsu [01x01-08 из 12] (2020) WEBRip 1080p | AniPlague

0 | 0

11.07 ГБ

В этой теме нет новых непрочитанных сообщений. Причуды любви / The Pompatus of Love (1995) DVDRip | P2

4 | 0

953.81 МБ

В этой теме нет новых непрочитанных сообщений. Богиня Любви / Goddess of Love (1988) DVDRip | P2

127 | 16

745.28 МБ

В этой теме нет новых непрочитанных сообщений. Бог любви / Love God (1997) DVDRip | А

25 | 1

1.04 ГБ

В этой теме нет новых непрочитанных сообщений. Поле любви / Love Field (1992) DVDRip-AVC | P2, A

0 | 2

2.25 ГБ

В этой теме нет новых непрочитанных сообщений. Объект любви / Love Object (2003) DVDRip-AVC | D

38 | 9

2.18 ГБ




Вы не можете начинать темы
Вы не можете отвечать на сообщения
Вы не можете редактировать свои сообщения
Вы не можете удалять свои сообщения
Вы не можете добавлять вложения

Перейти:  
Контактная информация: rstracker[пёсик]yandex.ru
 Вход
ppkBB3cker v.2 © 2008-2014 @ PPK
[ Time : 0.034s | 15 Queries | GZIP : Off ]

cron