img image001 image001 image001 image001 image001 image001 image001 image001 image001 image001 image001 image001 image001 image001 image001

Planets Sun Sun Sun
Статистика раздачи
Автор: PriZraK | Размер: 9.46 ГБ | Добавлен: 29 июн 2016
Раздают: 13    Качают: 3
Скачать торрент
Скачать торрент
Описание торрента

СообщениеДобавлено: 29 июн 2016 


Счастливого рождества, мистер Лоуренс / Merry Christmas Mr. Lawrence
Страна: Великобритания Япония Новая Зеландия
Производство: Oshima Productions, Cineventure Productions London, Asahi National Broadcasting Company, RPC, National Film Trustees
Год выпуска: 1983
Жанр: драма, военный
Продолжительность: 02:03:18
Режиссер: Нагиса Осима
Авторы сценария: Нагиса Осима, Пол Майерсберг, Лоренс ван дер Пост
В ролях: Дэвид Боуи, Том Конти, Рюити Сакамото, Такеши Китано, Джек Томпсон, Джонни Окура, Элистэр Браунинг, Джеймс Малкольм, Крис Браун, Юя Утида
Описание: Остров Ява, 1942 год. Британский майор Селльерс попадает в японский лагерь для военнопленных. Его несгибаемый дух становится непреодолимым препятствием для тюремщиков. Начальник лагеря Йоннои верит в дисциплину и кодекс самурайской чести. В его глазах военнопленные являются трусами, которые предпочли плен смерти. Йоннои во что бы то ни стало намерен сломить загадочного британца.
В противостояние этих двух людей невероятной силы воли и твердости духа пытается вмешаться полковник Лоуренс. Его любовь к культуре Японии и знание японского языка делают его опасной фигурой для обеих сторон — поскольку он может понимать и тех, и других…

Перевод: Профессиональный (многоголосый) | ЕА + Профессиональный (многоголосый) | Cinema Prestige + Авторский (одноголосый) | Пётр Карцев
Субтитры: русские, английские

Качество: BDRip 1080p
Формат: МКV
Видео кодек: AVC
Аудио кодек: АС3 | DTS
Видео: 1920x1080 (16:9), 23.976 fps, MPEG-4 AVC ~8 424 kbps avg
Аудио №1: 48.0 kHz, AC3 Dolby Digital, 3/2 (L,C,R,l,r) + LFE ch, ~448 kbps | MVO
Аудио №2: 48.0 kHz, AC3 Dolby Digital, 2/0 (L,R) ch, ~192.00 kbps | Cinema Prestige
Аудио №3: 48.0 kHz, AC3 Dolby Digital, 2/0 (L,R) ch, ~192.00 kbps | Пётр Карцев
Аудио №4: 48.0 kHz, Digital Theater Systems, 2/0 (L,R) ch, ~1510 kbps | ENG
Формат субтитров: UTF-8 Plain Text
Дата премьеры (мир): 10 мая 1983
релиз на DVD: 7 октября 2004, «Екатеринбург Арт»
General
Complete name : Merry.Christmas.Mr.Lawrence.1983.1080p.BluRay.x264.mkv
Format : Matroska
File size : 9.46 GiB
Duration : 2h 3mn
Overall bit rate : 11.0 Mbps
Movie name : Merry.Christmas.Mr.Lawrence.1983.1080p.BluRay.x264-LCHD
Encoded date : UTC 2010-10-15 20:11:24
Writing application : mkvmerge v3.2.0 ('Beginnings') built on Feb 12 2010 16:46:17
Writing library : libebml v0.7.9 + libmatroska v0.8.1
Video
ID : 1
Format : AVC
Format/Info : Advanced Video Codec
Format profile : High@L4.1
Format settings, CABAC : Yes
Format settings, ReFrames : 4 frames
Muxing mode : Container profile=Unknown@4.1
Codec ID : V_MPEG4/ISO/AVC
Duration : 2h 3mn
Bit rate : 8 424 Kbps
Nominal bit rate : 8 641 Kbps
Width : 1 920 pixels
Height : 1 080 pixels
Display aspect ratio : 16:9
Frame rate : 23.976 fps
Resolution : 8 bits
Colorimetry : 4:2:0
Scan type : Progressive
Bits/(Pixel*Frame) : 0.169
Stream size : 7.25 GiB (77%)
Writing library : x264 core 105 r1724 b02df7b
Encoding settings : cabac=1 / ref=4 / deblock=1:-1:-1 / analyse=0x3:0x113 / me=umh / subme=7 / psy=1 / psy_rd=1.00:0.00 / mixed_ref=1 / me_range=16 / chroma_me=1 / trellis=1 / 8x8dct=1 / cqm=0 / deadzone=21,11 / fast_pskip=1 / chroma_qp_offset=-2 / threads=12 / sliced_threads=0 / nr=0 / decimate=1 / interlaced=0 / constrained_intra=0 / bframes=3 / b_pyramid=2 / b_adapt=2 / b_bias=0 / direct=3 / weightb=1 / open_gop=0 / weightp=2 / keyint=250 / keyint_min=23 / scenecut=40 / intra_refresh=0 / rc_lookahead=40 / rc=2pass / mbtree=1 / bitrate=8641 / ratetol=1.0 / qcomp=0.60 / qpmin=10 / qpmax=51 / qpstep=4 / cplxblur=20.0 / qblur=0.5 / vbv_maxrate=50000 / vbv_bufsize=50000 / ip_ratio=1.40 / aq=1:1.00 / nal_hrd=none
Language : English
Audio #1
ID : 2
Format : AC-3
Format/Info : Audio Coding 3
Codec ID : A_AC3
Duration : 2h 3mn
Bit rate mode : Constant
Bit rate : 448 Kbps
Channel(s) : 6 channels
Channel positions : Front: L C R, Surround: L R, LFE
Sampling rate : 48.0 KHz
Stream size : 395 MiB (4%)
Title : EA
Language : Russian
Audio #2
ID : 3
Format : AC-3
Format/Info : Audio Coding 3
Codec ID : A_AC3
Duration : 2h 3mn
Bit rate mode : Constant
Bit rate : 192 Kbps
Channel(s) : 2 channels
Channel positions : L R
Sampling rate : 48.0 KHz
Stream size : 169 MiB (2%)
Title : Cinema Prestige
Language : Russian
Audio #3
ID : 4
Format : AC-3
Format/Info : Audio Coding 3
Codec ID : A_AC3
Duration : 2h 3mn
Bit rate mode : Constant
Bit rate : 192 Kbps
Channel(s) : 2 channels
Channel positions : L R
Sampling rate : 48.0 KHz
Stream size : 169 MiB (2%)
Title : Петр Карцев
Language : Russian
Audio #4
ID : 5
Format : DTS
Format/Info : Digital Theater Systems
Codec ID : A_DTS
Duration : 2h 3mn
Bit rate mode : Constant
Bit rate : 1 510 Kbps
Channel(s) : 2 channels
Channel positions : L R
Sampling rate : 48.0 KHz
Resolution : 24 bits
Stream size : 1.30 GiB (14%)
Language : English
Text #1
ID : 6
Format : UTF-8
Codec ID : S_TEXT/UTF8
Codec ID/Info : UTF-8 Plain Text
Title : EA
Language : Russian
Text #2
ID : 7
Format : UTF-8
Codec ID : S_TEXT/UTF8
Codec ID/Info : UTF-8 Plain Text
Language : English




   Похожие торренты   Торрент   Размер 
В этой теме нет новых непрочитанных сообщений. Счастливого рождества, мистер Лоуренс / Merry Christmas Mr. Lawrence (1983) BDRip-AVC | Р, А

3 | 0

3.53 ГБ

В этой теме нет новых непрочитанных сообщений. Счастливого рождества, мистер Лоуренс / Merry Christmas Mr. Lawrence (1983) BDRip от HQCLUB

29 | 5

2.18 ГБ

В этой теме нет новых непрочитанных сообщений. Счастливого рождества, мистер Лоуренс / Merry Christmas Mr. Lawrence (1983) HDRip от SergV

7 | 2

2.18 ГБ

В этой теме нет новых непрочитанных сообщений. Счастливого Рождества / Merry Christmas / Joyeux Noël (2005) BDRip 1080p | P, P2

9 | 0

12.31 ГБ

В этой теме нет новых непрочитанных сообщений. Счастливого Рождества / Joyeux Noël / Merry Christmas (2005) BDRip от MegaPeer | P

23 | 0

1.46 ГБ

В этой теме нет новых непрочитанных сообщений. Счастливого Рождества / Joyeux Noël / Merry Christmas (2005) BDRip от MegaPeer | P

25 | 0

747.4 МБ

В этой теме нет новых непрочитанных сообщений. Счастливого Рождества / Joyeux Noël / Joyeux Noel / Merry Christmas (2005) BDRip 720p | P, P2

3 | 0

4.07 ГБ




Вы не можете начинать темы
Вы не можете отвечать на сообщения
Вы не можете редактировать свои сообщения
Вы не можете удалять свои сообщения
Вы не можете добавлять вложения

Перейти:  
Для Мосгорсуда, Роскомнадзора и рекламодателей: mosgorsud-torrent[собачка]yandex.ru
 Вход
ppkBB3cker v.2 © 2008-2014 @ PPK
[ Time : 0.050s | 17 Queries | GZIP : Off ]

Торрент трекер RUTOR.IN, Не можете зайти на rutor.org? Какой новый адрес рутор? Какое зеркало рутор? Не работает rutor.org и зеркала? Тогда наш торрент специально для вас. Rutor.in неофициальное зеркало rutor. В случае если у Вас заблокирован rutor или вдруг Вы не можете на него зайти, то Вы без труда сможете скачать бесплатно и без рекламы последние новинки кино, игр, сериалов и прочего у нас, на Rutor.in. Не нужно использовать прокси, чтобы зайти на рутор, достаточно воспользоваться нашим ресурсом. Все новые фильмы, игры, сериалы, книги и музыка за 2013 и 2014 годы через торрент бесплатно. Скачивайте фильмы в хорошем качестве, игры для пк, xbox, playstation без регистрации. У нас вы найдете новые Зарубежные сериалы и Русские сериалы 2013, 2014, 2015 годов. Оставайтесь с нами, качайте любимые фильмы, игры, сериалы, книги и музыку.