img image001 image001 image001 image001 image001 image001 image001 image001 image001 image001 image001 image001 image001 image001 image001 image001

Planets Sun Sun Sun
Статистика раздачи
Автор: Nickolas3434 | Размер: 14.42 ГБ | Добавлен: 02 июл 2016
Раздают: 18    Качают: 4
Скачать торрент
Скачать торрент
Описание торрента

СообщениеДобавлено: 02 июл 2016 

Название: Жить и умереть в Лос-Анджелесе
Оригинальное название: To Live and Die in L.A.
Год выхода: 1985
Страна: США
Студия: SLM Production Group, New Century Productions, United Artists
Продолжительность: 01:55:53
Жанр: боевик, триллер, драма, криминал, ...
Режиссер: Уильям Фридкин
В ролях: Уильям Л. Питерсен, Уиллем Дефо, Джон Пэнкоу, Дебра Фойер, Джон Туртурро, Дарлэнн Флюгел, Дин Стокуэлл, Стив Джеймс, Роберт Дауни ст., Майкл Грин, ...
Перевод:
- Профессиональный (многоголосный, закадровый) R5
- Профессиональный (двуголосый, закадровый) SDI Media
- Авторский (одноголосый, закадровый) Матвеев Алексей
- Авторский (одноголосый, закадровый) Михалёв Алексей Михайлович
- Авторский (одноголосый, закадровый) Гаврилов Андрей Юрьевич
- Авторский (одноголосый, закадровый) Толбин Юрий
- Любительский (одноголосый, закадровый) ?
- Субтитры
О фильме: Если ты работаешь в ФБР, то умереть тебе намного проще, чем жить… Напарник федерального агента Ричарда Ченса погибает от руки неуловимого фальшивомонетчика Мастерса. Ричард клянется засадить убийцу за решетку, даже если ради этого ему самому придется пойти на преступление…

Кодек: x264
Качество: BDRip 1080p
Видео: 1920x1040, 15000 kbps, 23,976 fps
Аудио #1: AC-3, 2 ch, 192 kbps (Rus) - MVO НТВ
Аудио #2: AC-3, 2 ch, 192 kbps (Rus) - DVO SDI Media
Аудио #3: AC-3, 6 ch, 640 kbps (Rus) - AVO Матвеев Алексей (Doctor Joker)
Аудио #4: AC-3, 2 ch, 192 kbps (Rus) - AVO Михалёв Алексей Михайлович
Аудио #5: AC-3, 2 ch, 192 kbps (Rus) - AVO Гаврилов Андрей Юрьевич
Аудио #6: AC-3, 2 ch, 192 kbps (Rus) - AVO Толбин Юрий
Аудио #7: AC-3, 6 ch, 448 kbps (Rus) - VO
Аудио #8: DTS, 6 ch, 768 kbps (Eng)
Субтитры: Русские, Английские (SDH)
За исходник спасибо - anakata
Сравниваем исходник, мой рип и рип с раздачи Zha-4k-e :


x264 [info]: frame I:817 Avg QP:20.05 size:198784
x264 [info]: frame P:29556 Avg QP:22.22 size:116430
x264 [info]: frame B:136335 Avg QP:24.01 size: 69190
x264 [info]: consecutive B-frames: 1.3% 2.3% 1.9% 24.7% 3.4% 17.2% 2.2% 27.5% 1.2% 1.0% 1.3% 15.6% 0.5%
Общее
Уникальный идентификатор : 171752373788444977609772758791384655799 (0x81364DD0F8427DB4A14FB08B3B0EE7B7)
Полное имя : Жить и умереть в Лос-Анджелесе (To Live and Die in L.A.) 1985 BDRip 1080p.mkv
Формат : Matroska
Версия формата : Version 2
Размер файла : 14,4 Гбайт
Продолжительность : 1 ч. 55 м.
Общий поток : 17,8 Мбит/сек
Дата кодирования : UTC 2016-07-01 06:29:21
Программа кодирования : mkvmerge v4.0.0 ('The Stars were mine') сборка от Jun 6 2010 16:18:42
Библиотека кодирования : libebml v1.0.0 + libmatroska v1.0.0
Видео
Идентификатор : 1
Формат : AVC
Формат/Информация : Advanced Video Codec
Профиль формата : High@L4.1
Параметр CABAC формата : Да
Параметр ReFrames формата : 4 кадра
Идентификатор кодека : V_MPEG4/ISO/AVC
Продолжительность : 1 ч. 55 м.
Битрейт : 15,0 Мбит/сек
Ширина : 1920 пикселей
Высота : 1040 пикселей
Соотношение сторон : 1,85:1
Режим частоты кадров : Постоянный
Частота кадров : 23,976 (24000/1001) кадра/сек
Цветовое пространство : YUV
Субдискретизация насыщенности : 4:2:0
Битовая глубина : 8 бит
Тип развёртки : Прогрессивная
Бит/(Пиксели*Кадры) : 0.313
Размер потока : 11,9 Гбайт (82%)
Библиотека кодирования : x264 core 146 r2538 121396c
Настройки программы : cabac=1 / ref=4 / deblock=1:-3:-3 / analyse=0x3:0x133 / me=umh / subme=11 / psy=1 / psy_rd=1.10:0.16 / mixed_ref=1 / me_range=32 / chroma_me=1 / trellis=2 / 8x8dct=1 / cqm=0 / deadzone=21,11 / fast_pskip=0 / chroma_qp_offset=-3 / threads=12 / lookahead_threads=2 / sliced_threads=0 / nr=0 / decimate=0 / interlaced=0 / bluray_compat=0 / constrained_intra=0 / bframes=12 / b_pyramid=2 / b_adapt=2 / b_bias=0 / direct=3 / weightb=1 / open_gop=0 / weightp=2 / keyint=240 / keyint_min=23 / scenecut=40 / intra_refresh=0 / rc_lookahead=60 / rc=2pass / mbtree=0 / bitrate=15000 / ratetol=1.0 / qcomp=0.60 / qpmin=0 / qpmax=69 / qpstep=4 / cplxblur=20.0 / qblur=0.5 / vbv_maxrate=50000 / vbv_bufsize=62500 / nal_hrd=none / filler=0 / ip_ratio=1.40 / pb_ratio=1.30 / aq=1:0.90
Язык : English
Default : Нет
Forced : Нет
Аудио #1
Идентификатор : 2
Формат : AC-3
Формат/Информация : Audio Coding 3
Расширение режима : CM (complete main)
Параметр Endianness формата : Big
Идентификатор кодека : A_AC3
Продолжительность : 1 ч. 55 м.
Вид битрейта : Постоянный
Битрейт : 192 Кбит/сек
Каналы : 2 канала
Расположение каналов : Front: L R
Частота : 48,0 КГц
Частота кадров : 31,250 кадров/сек (1536 spf)
Метод сжатия : С потерями
Размер потока : 159 Мбайт (1%)
Заголовок : MVO НТВ
Язык : Russian
Default : Нет
Forced : Нет
Аудио #2
Идентификатор : 3
Формат : AC-3
Формат/Информация : Audio Coding 3
Расширение режима : CM (complete main)
Параметр Endianness формата : Big
Идентификатор кодека : A_AC3
Продолжительность : 1 ч. 55 м.
Вид битрейта : Постоянный
Битрейт : 192 Кбит/сек
Каналы : 2 канала
Расположение каналов : Front: L R
Частота : 48,0 КГц
Частота кадров : 31,250 кадров/сек (1536 spf)
Метод сжатия : С потерями
Размер потока : 159 Мбайт (1%)
Заголовок : DVO SDI Media
Язык : Russian
Default : Нет
Forced : Нет
Аудио #3
Идентификатор : 4
Формат : AC-3
Формат/Информация : Audio Coding 3
Расширение режима : CM (complete main)
Параметр Endianness формата : Big
Идентификатор кодека : A_AC3
Продолжительность : 1 ч. 55 м.
Вид битрейта : Постоянный
Битрейт : 640 Кбит/сек
Каналы : 6 каналов
Расположение каналов : Front: L C R, Side: L R, LFE
Частота : 48,0 КГц
Частота кадров : 31,250 кадров/сек (1536 spf)
Метод сжатия : С потерями
Размер потока : 530 Мбайт (4%)
Заголовок : AVO Матвеев Алексей (Doctor Joker)
Язык : Russian
Default : Нет
Forced : Нет
Аудио #4
Идентификатор : 5
Формат : AC-3
Формат/Информация : Audio Coding 3
Расширение режима : CM (complete main)
Параметр Endianness формата : Big
Идентификатор кодека : A_AC3
Продолжительность : 1 ч. 55 м.
Вид битрейта : Постоянный
Битрейт : 192 Кбит/сек
Каналы : 2 канала
Расположение каналов : Front: L R
Частота : 48,0 КГц
Частота кадров : 31,250 кадров/сек (1536 spf)
Метод сжатия : С потерями
Размер потока : 159 Мбайт (1%)
Заголовок : AVO Михалёв Алексей Михайлович [1944—1994]
Язык : Russian
Default : Нет
Forced : Нет
Аудио #5
Идентификатор : 6
Формат : AC-3
Формат/Информация : Audio Coding 3
Расширение режима : CM (complete main)
Параметр Endianness формата : Big
Идентификатор кодека : A_AC3
Продолжительность : 1 ч. 55 м.
Вид битрейта : Постоянный
Битрейт : 192 Кбит/сек
Каналы : 2 канала
Расположение каналов : Front: L R
Частота : 48,0 КГц
Частота кадров : 31,250 кадров/сек (1536 spf)
Метод сжатия : С потерями
Размер потока : 159 Мбайт (1%)
Заголовок : AVO Гаврилов Андрей Юрьевич
Язык : Russian
Default : Нет
Forced : Нет
Аудио #6
Идентификатор : 7
Формат : AC-3
Формат/Информация : Audio Coding 3
Расширение режима : CM (complete main)
Параметр Endianness формата : Big
Идентификатор кодека : A_AC3
Продолжительность : 1 ч. 55 м.
Вид битрейта : Постоянный
Битрейт : 192 Кбит/сек
Каналы : 2 канала
Расположение каналов : Front: L R
Частота : 48,0 КГц
Частота кадров : 31,250 кадров/сек (1536 spf)
Метод сжатия : С потерями
Размер потока : 159 Мбайт (1%)
Заголовок : AVO Толбин Юрий
Язык : Russian
Default : Нет
Forced : Нет
Аудио #7
Идентификатор : 8
Формат : AC-3
Формат/Информация : Audio Coding 3
Расширение режима : CM (complete main)
Параметр Endianness формата : Big
Идентификатор кодека : A_AC3
Продолжительность : 1 ч. 55 м.
Вид битрейта : Постоянный
Битрейт : 448 Кбит/сек
Каналы : 6 каналов
Расположение каналов : Front: L C R, Side: L R, LFE
Частота : 48,0 КГц
Частота кадров : 31,250 кадров/сек (1536 spf)
Метод сжатия : С потерями
Размер потока : 371 Мбайт (3%)
Заголовок : VO
Язык : Russian
Default : Нет
Forced : Нет
Аудио #8
Идентификатор : 9
Формат : DTS
Формат/Информация : Digital Theater Systems
Режим : 16
Параметр Endianness формата : Big
Идентификатор кодека : A_DTS
Продолжительность : 1 ч. 55 м.
Вид битрейта : Постоянный
Битрейт : 768 Кбит/сек
Каналы : 6 каналов
Расположение каналов : Front: L C R, Side: L R, LFE
Частота : 48,0 КГц
Частота кадров : 93,750 кадра/сек (512 spf)
Битовая глубина : 24 бит
Метод сжатия : С потерями
Размер потока : 637 Мбайт (4%)
Язык : English
Default : Нет
Forced : Нет
Текст #1
Идентификатор : 10
Формат : UTF-8
Идентификатор кодека : S_TEXT/UTF8
Идентификатор кодека/Информация : UTF-8 Plain Text
Язык : Russian
Default : Нет
Forced : Нет
Текст #2
Идентификатор : 11
Формат : UTF-8
Идентификатор кодека : S_TEXT/UTF8
Идентификатор кодека/Информация : UTF-8 Plain Text
Заголовок : SDH
Язык : English
Default : Нет
Forced : Нет





   Похожие торренты   Торрент   Размер 
В этой теме нет новых непрочитанных сообщений. Жить и умереть в Лос-Анджелесе / To Live and Die in L.A. (1985) BDRip 1080p | Р, А

3 | 0

12.39 ГБ

В этой теме нет новых непрочитанных сообщений. Жить и умереть в Лос-Анджелесе / To Live and Die in L.A. (1985) HDRip | A

104 | 3

1.45 ГБ

В этой теме нет новых непрочитанных сообщений. Жить и умереть в Лос-Анджелесе / To Live and Die in L.A. (1985) HDRip от Scarabey | P

31 | 1

1.45 ГБ

В этой теме нет новых непрочитанных сообщений. Так жить нельзя / No Way to Live (2016) WEBRip 1080p | L2

12 | 0

3.63 ГБ

В этой теме нет новых непрочитанных сообщений. Уж лучше умереть / Better Off Dead... (Сэвидж Стив Холланд) [1985, мелодрама, комедия, BDRip] MVO

2 | 0

744.61 МБ

В этой теме нет новых непрочитанных сообщений. Апокалипсис в Лос-Анджелесе / LA Apocalypse (2014) BDRip 1080p | P

130 | 18

6.67 ГБ

В этой теме нет новых непрочитанных сообщений. 007: Живи и дай умереть / Live and Let Die (1973) HDRip от Scarabey | D

60 | 2

749.14 МБ




Вы не можете начинать темы
Вы не можете отвечать на сообщения
Вы не можете редактировать свои сообщения
Вы не можете удалять свои сообщения
Вы не можете добавлять вложения

Перейти:  
 Вход
ppkBB3cker v.2 © 2008-2014 @ PPK
[ Time : 0.139s | 18 Queries | GZIP : Off ]

cron