img image001 image001 image001 image001 image001 image001 image001 image001 image001 image001 image001 image001 image001 image001 image001

Planets Sun Sun Sun
Статистика раздачи
Автор: Снежана | Размер: 4.37 ГБ | Добавлен: 21 июл 2013
Раздают: 642    Качают: 39
Скачать торрент
Скачать торрент
Описание торрента

СообщениеДобавлено: 21 июл 2013 

#77

Информация о фильме
Название: 007: Казино Рояль
Оригинальное название: 007: Casino Royale
Год выхода: 2006
Жанр: боевик, триллер, криминал, приключения
Режиссер: Мартин Кэмпбелл / Martin Campbell
В ролях: Дэниэл Крэйг, Ева Грин, Мадс Миккельсен, Джуди Денч, Джеффри Райт, Джанкарло Джаннини, Катерина Мурино, Симон Абкарян, Исаак Де Банколе, Еспер Кристенсен

О фильме:
Самый известный шпион в мире возвращается к зрителю — и к началу своей бурной деятельности на службе Ее Величества! Первая же миссия в качестве агента 007 становится его величайшим испытанием: ему выпадает сразиться с международной террористической организацией, опутавшей своей сетью всю планету.
Используя богатый шпионский арсенал — от верного пистолета до навороченного спортивного авто — Джеймс Бонд вступает в поединок с ключевой фигурой сил зла, финансовым гением преступного мира Ле Шиффром. Но пули хороши лишь для приспешников Ле Шиффра: генеральное сражение против негодяя можно выиграть лишь силой ума — и не на поле боя, а на зеленом сукне роскошного казино «Рояль»…



Выпущено: США, Германия, Великобритания, Чехия, Багамы
Продолжительность: 02:24:20
Перевод: Дублированный

Файл
Кодек: x264
Качество: BDRip 1080p
Видео: 1920x800, 3890 Kbps, 23.976 fps
Звук: 48 kHz, AC3, 6c, 448 kbps
Cубтитры: русские (полные, форсированные), английские

General
Unique ID : 246644806121648833788292587049507740450 (0xB98E0FD067283B80933C908E6639DB22)
Complete name : 007. Казино Рояль.2006.BDRip.1080p.Rus.mkv
Format : Matroska
Format version : Version 2
File size : 4.37 GiB
Duration : 2h 24mn
Overall bit rate : 4 336 Kbps
Movie name : 007: Казино Рояль.2006
Encoded date : UTC 2012-04-08 05:54:59
Writing application : mkvmerge v5.5.0 ('Healer') built on Apr 6 2012 21:43:24
Writing library : libebml v1.2.3 + libmatroska v1.3.0

Video
ID : 1
Format : AVC
Format/Info : Advanced Video Codec
Format profile : High@L4.1
Format settings, CABAC : Yes
Format settings, ReFrames : 5 frames
Codec ID : V_MPEG4/ISO/AVC
Duration : 2h 24mn
Bit rate : 3 890 Kbps
Width : 1 920 pixels
Height : 800 pixels
Display aspect ratio : 2.40:1
Frame rate : 23.976 fps
Color space : YUV
Chroma subsampling : 4:2:0
Bit depth : 8 bits
Scan type : Progressive
Bits/(Pixel*Frame) : 0.106
Stream size : 3.83 GiB (88%)
Title : Rip by Boriy
Writing library : x264 core 122 r2184 5c85e0a
Encoding settings : cabac=1 / ref=5 / deblock=1:0:0 / analyse=0x3:0x113 / me=umh / subme=10 / psy=1 / psy_rd=1.00:0.10 / mixed_ref=1 / me_range=32 / chroma_me=1 / trellis=2 / 8x8dct=1 / cqm=0 / deadzone=21,11 / fast_pskip=0 / chroma_qp_offset=-3 / threads=12 / sliced_threads=0 / nr=0 / decimate=1 / interlaced=0 / bluray_compat=0 / constrained_intra=0 / bframes=5 / b_pyramid=2 / b_adapt=2 / b_bias=0 / direct=3 / weightb=1 / open_gop=0 / weightp=2 / keyint=240 / keyint_min=23 / scenecut=40 / intra_refresh=0 / rc_lookahead=60 / rc=2pass / mbtree=1 / bitrate=3890 / ratetol=1.0 / qcomp=0.60 / qpmin=0 / qpmax=69 / qpstep=4 / cplxblur=20.0 / qblur=0.5 / ip_ratio=1.40 / aq=1:1.00
Language : English
Default : Yes
Forced : No

Audio
ID : 2
Format : AC-3
Format/Info : Audio Coding 3
Mode extension : CM (complete main)
Codec ID : A_AC3
Duration : 2h 24mn
Bit rate mode : Constant
Bit rate : 448 Kbps
Channel(s) : 6 channels
Channel positions : Front: L C R, Side: L R, LFE
Sampling rate : 48.0 KHz
Bit depth : 16 bits
Compression mode : Lossy
Stream size : 463 MiB (10%)
Title : Дубляж
Language : Russian
Default : Yes
Forced : No

Text #1
ID : 3
Format : UTF-8
Codec ID : S_TEXT/UTF8
Codec ID/Info : UTF-8 Plain Text
Title : Forced
Language : Russian
Default : Yes
Forced : No

Text #2
ID : 4
Format : UTF-8
Codec ID : S_TEXT/UTF8
Codec ID/Info : UTF-8 Plain Text
Title : Full
Language : Russian
Default : No
Forced : No

Text #3
ID : 5
Format : UTF-8
Codec ID : S_TEXT/UTF8
Codec ID/Info : UTF-8 Plain Text
Title : Full
Language : English
Default : No
Forced : No

Menu
00:00:00.000 : en:
00:09:38.286 : en:
00:19:31.503 : en:
00:25:36.326 : en:
00:35:19.242 : en:
00:39:59.855 : en:
00:45:22.761 : en:
00:57:51.384 : en:
01:07:22.621 : en:
01:17:12.377 : en:
01:30:06.401 : en:
01:38:41.498 : en:
01:43:29.953 : en:
01:53:49.823 : en:
02:05:31.899 : en:
02:13:06.228 : en:



   Похожие торренты   Торрент   Размер 
В этой теме нет новых непрочитанных сообщений. Казино Рояль / Casino Royale (2006) BDRip 1080p от Freeisland

50 | 7

7.84 ГБ

В этой теме нет новых непрочитанных сообщений. 007: Казино Рояль / 007: Casino Royale (2006) BDRip 1080p от NNNB

207 | 81

11.52 ГБ

В этой теме нет новых непрочитанных сообщений. 007: Казино Рояль / 007: Casino Royale [CEE] (2006) Blu-Ray 1080p

6 | 8

45.79 ГБ

В этой теме нет новых непрочитанных сообщений. Джеймс Бонд 007: Казино Рояль / James Bond 007: Casino Royale (2006) BDRip 1080p | D | UnCut

313 | 57

15.52 ГБ

В этой теме нет новых непрочитанных сообщений. 007: Казино Рояль / Casino Royale (2006) BDRip 720p l D

449 | 22

2.89 ГБ

В этой теме нет новых непрочитанных сообщений. 007: Казино Рояль / 007: Casino Royale (2006) BDRip от HQCLUB

11 | 18

2.91 ГБ

В этой теме нет новых непрочитанных сообщений. Казино Рояль / Casino Royale (2006) BDRip от HQ-ViDEO

53 | 0

2.91 ГБ




Вы не можете начинать темы
Вы не можете отвечать на сообщения
Вы не можете редактировать свои сообщения
Вы не можете удалять свои сообщения
Вы не можете добавлять вложения

Перейти:  
Для Мосгорсуда, Роскомнадзора и рекламодателей: mosgorsud-torrent[собачка]yandex.ru
 Вход
ppkBB3cker v.2 © 2008-2014 @ PPK
[ Time : 0.061s | 16 Queries | GZIP : Off ]

Торрент трекер RUTOR.IN, Не можете зайти на rutor.org? Какой новый адрес рутор? Какое зеркало рутор? Не работает rutor.org и зеркала? Тогда наш торрент специально для вас. Rutor.in неофициальное зеркало rutor. В случае если у Вас заблокирован rutor или вдруг Вы не можете на него зайти, то Вы без труда сможете скачать бесплатно и без рекламы последние новинки кино, игр, сериалов и прочего у нас, на Rutor.in. Не нужно использовать прокси, чтобы зайти на рутор, достаточно воспользоваться нашим ресурсом. Все новые фильмы, игры, сериалы, книги и музыка за 2013 и 2014 годы через торрент бесплатно. Скачивайте фильмы в хорошем качестве, игры для пк, xbox, playstation без регистрации. У нас вы найдете новые Зарубежные сериалы и Русские сериалы 2013, 2014, 2015 годов. Оставайтесь с нами, качайте любимые фильмы, игры, сериалы, книги и музыку.
cron