img image001 image001 image001 image001 image001 image001 image001 image001 image001 image001 image001 image001 image001 image001 image001 image001

Planets Sun Sun Sun
Статистика раздачи
Автор: Nickolas3434 | Размер: 1.46 ГБ | Добавлен: 22 июл 2016
Раздают: 177    Качают: 36
Скачать торрент
Скачать торрент
Описание торрента

СообщениеДобавлено: 22 июл 2016 


Информация о фильме
Название: Сказки на ночь
Оригинальное название: Bedtime Stories
Год выхода: 2008
Жанр: Фэнтези, мелодрама, комедия, семейный
Режиссер: Адам Шенкман / Adam Shankman
В ролях: Адам Сэндлер, Кери Рассел, Гай Пирс, Расселл Брэнд, Ричард Гриффитс, Тереза Палмер, Люси Лоулесс, Кортни Кокс, Джонатан Морган Хейт, Лаура Энн Кеслинг
О фильме:
В жизни главного героя Скитера Бронсона никогда не случалось ничего удивительного. Но однажды сестра попросила его присмотреть за двумя очаровательными и неугомонными племянниками и одной симпатичной морской свинкой по имени Плаксик. Все трое привыкли засыпать под мамины сказки, и Скитеру пришлось каждый вечер придумывать невероятные истории для своей веселой семейки. И вдруг происходит чудо: события сказки, рассказанной детям на ночь, начали сбываться на следующий день в жизни самого Скитера!

Страна: США
Студия: Walt Disney Pictures, Gunn Films,Happy Madison, Offspring Entertainment
Продолжительность: 01:39:12
Перевод: Профессиональный (полное дублирование) [лицензия BD CEE]
Файл
Кодек: XviD
Качество: HDRip
Видео: 688x288 (2.39:1), 23.976 fps, XviD build 73 ~1715 kbps avg, 0.36 bit/pixel
Звук: 48 kHz, AC3 Dolby Digital, 3/2 (L,C,R,l,r) + LFE ch, ~384 kbps
Субтитры: Русские (вшитые)
Семпл
General
Complete name : D:Изготовление рипаSkazki.na.Noch'.2008.DUB & Rus SUB. HDRip by shkiper.avi
Format : AVI
Format/Info : Audio Video Interleave
File size : 1.46 GiB
Duration : 1h 39mn
Overall bit rate : 2 109 Kbps
Writing application : VirtualDubMod 1.5.10.3 | www.virtualdub-fr.org || (build 2550/release)
Writing library : VirtualDubMod build 2550/release
Video
ID : 0
Format : MPEG-4 Visual
Format profile : Advanced Simple@L5
Format settings, BVOP : 1
Format settings, QPel : No
Format settings, GMC : No warppoints
Format settings, Matrix : Custom
Codec ID : XVID
Codec ID/Hint : XviD
Duration : 1h 39mn
Bit rate : 1 716 Kbps
Width : 688 pixels
Height : 288 pixels
Display aspect ratio : 2.40:1
Frame rate : 23.976 (23976/1000) fps
Color space : YUV
Chroma subsampling : 4:2:0
Bit depth : 8 bits
Scan type : Progressive
Compression mode : Lossy
Bits/(Pixel*Frame) : 0.361
Stream size : 1.19 GiB (81%)
Writing library : XviD 73
Audio
ID : 1
Format : AC-3
Format/Info : Audio Coding 3
Mode extension : CM (complete main)
Format settings, Endianness : Big
Codec ID : 2000
Duration : 1h 39mn
Bit rate mode : Constant
Bit rate : 384 Kbps
Channel(s) : 6 channels
Channel positions : Front: L C R, Side: L R, LFE
Sampling rate : 48.0 KHz
Frame rate : 31.250 fps (1536 spf)
Compression mode : Lossy
Stream size : 272 MiB (18%)
Alignment : Split accross interleaves
Interleave, duration : 42 ms (1.00 video frame)
Interleave, preload duratio : 500 ms

Релиз от:



   Похожие торренты   Торрент   Размер 
В этой теме нет новых непрочитанных сообщений. Сказки на ночь / Bedtime Stories (2008) HDRip | КПК | Лицензия

117 | 22

448.13 МБ

В этой теме нет новых непрочитанных сообщений. Сказки на ночь / Bedtime Stories (2008) BDRip 1080p

254 | 27

5.77 ГБ

В этой теме нет новых непрочитанных сообщений. Сказки на ночь / Bedtime Stories (2008) BDRip 720p от HELLYWOOD | Лицензия

136 | 13

5.82 ГБ

В этой теме нет новых непрочитанных сообщений. Сказки на ночь Тима и Эрика / Tim & Eric’s Bedtime Stories [02x01-03 из 06] (2017) WEB-DL 1080p | Jimmy J

9 | 1

2.65 ГБ

В этой теме нет новых непрочитанных сообщений. Сказки на ночь Тима и Эрика / Tim & Eric’s Bedtime Stories [02x01, 03 из 06] (2017) WEB-DL 1080p | Jimmy J

7 | 0

1.97 ГБ

В этой теме нет новых непрочитанных сообщений. Сказки на ночь Тима и Эрика / Tim & Eric’s Bedtime Stories [S02] (2017) WEBRip 1080p | Jimmy J

2 | 1

5.29 ГБ

В этой теме нет новых непрочитанных сообщений. Сказки на ночь Тима и Эрика / Tim & Eric’s Bedtime Stories [02x01-04 из 06] (2017) WEBRip 1080p | Jimmy J

1 | 2

3.33 ГБ




Вы не можете начинать темы
Вы не можете отвечать на сообщения
Вы не можете редактировать свои сообщения
Вы не можете удалять свои сообщения
Вы не можете добавлять вложения

Перейти:  
 Вход
ppkBB3cker v.2 © 2008-2014 @ PPK
[ Time : 0.045s | 16 Queries | GZIP : Off ]

cron