img image001 image001 image001 image001 image001 image001 image001 image001 image001 image001 image001 image001 image001 image001 image001 image001

Planets Sun Sun Sun
Статистика раздачи
Автор: Nickolas3434 | Размер: 1.25 ГБ | Добавлен: 23 июл 2016
Раздают: 95    Качают: 12
Скачать торрент
Скачать торрент
Описание торрента

СообщениеДобавлено: 23 июл 2016 


Информация о фильме
Название: Цвет времени
Оригинальное название: The Color of Time
Год выхода: 2012
Жанр: авторское кино, биография
Режиссер: Эдна Луиза Бисолд / Edna Luise Biesold
В ролях: Джеймс Франко, Мила Кунис, Джессика Честейн, Зак Брафф, Брюс Кэмпбелл, Генри Хоппер, Джиавани Каиро, Джэми ДеКелайта, Кимберли Харш, Янн Хайт
О фильме:
Поэтический взгляд на 40 лет жизни и творчества писателя Ч. К. Уильямса.

Страна: США
Студия: RabbitBandini Productions, Victorino Noval Productions, Elysium Bandini Studios
Продолжительность: 01:09:45.160
Перевод: Профессиональный (многоголосый закадровый)
Файл
Кодек: h.264
Качество: HDTVRip 720p Исходник HDTV 1080i КИНО ТВ HD
Видео: 1280x720 (16:9), 25.000 fps, AVC, ~2219 Kbps, 0.096 bits/pixel
Звук:
Русский, 48.0 KHz, AC3, 2 ch, 160 Kbps
Английский, 48.0 KHz, AC3, 2 ch, 192 Kbps
Субтитры: нет
Общее
Уникальный идентификатор : 181125611264536007564123095395370465288 (0x8843861A92D876DBB941A773193AF808)
Полное имя : E:FILMSTsvet_vremeni.2012.HDTVRip720p.mkv
Формат : Matroska
Версия формата : Version 4 / Version 2
Размер файла : 1,25 Гбайт
Продолжительность : 1 ч. 9 м.
Общий поток : 2573 Кбит/сек
Дата кодирования : UTC 2016-07-02 18:09:32
Программа кодирования : mkvmerge v9.2.0 ('Photograph') 64bit
Библиотека кодирования : libebml v1.3.3 + libmatroska v1.4.4
Видео
Идентификатор : 1
Формат : AVC
Формат/Информация : Advanced Video Codec
Профиль формата : High@L4.1
Параметр CABAC формата : Да
Параметр ReFrames формата : 9 кадров
Идентификатор кодека : V_MPEG4/ISO/AVC
Продолжительность : 1 ч. 9 м.
Битрейт : 2219 Кбит/сек
Ширина : 1280 пикселей
Высота : 720 пикселей
Соотношение сторон : 16:9
Режим частоты кадров : Постоянный
Частота кадров : 25,000 кадров/сек
Цветовое пространство : YUV
Субдискретизация насыщенности : 4:2:0
Битовая глубина : 8 бит
Тип развёртки : Прогрессивная
Бит/(Пиксели*Кадры) : 0.096
Размер потока : 1,08 Гбайт (86%)
Библиотека кодирования : x264 core 148 r2638 7599210
Настройки программы : cabac=1 / ref=9 / deblock=1:-3:-3 / analyse=0x3:0x133 / me=umh / subme=11 / psy=1 / psy_rd=1.10:0.15 / mixed_ref=1 / me_range=48 / chroma_me=1 / trellis=2 / 8x8dct=1 / cqm=0 / deadzone=21,11 / fast_pskip=0 / chroma_qp_offset=-3 / threads=8 / lookahead_threads=1 / sliced_threads=0 / nr=0 / decimate=0 / interlaced=0 / bluray_compat=0 / constrained_intra=0 / bframes=8 / b_pyramid=2 / b_adapt=2 / b_bias=0 / direct=3 / weightb=1 / open_gop=0 / weightp=2 / keyint=250 / keyint_min=25 / scenecut=40 / intra_refresh=0 / rc_lookahead=60 / rc=2pass / mbtree=0 / bitrate=2219 / ratetol=1.0 / qcomp=0.60 / qpmin=0 / qpmax=69 / qpstep=4 / cplxblur=20.0 / qblur=0.5 / vbv_maxrate=40000 / vbv_bufsize=50000 / nal_hrd=none / filler=0 / ip_ratio=1.40 / pb_ratio=1.30 / aq=1:1.00
Default : Нет
Forced : Нет
Цветовой диапазон : Limited
Основные цвета : BT.709
Характеристики трансфера : BT.709
Коэффициенты матрицы : BT.709
Аудио #1
Идентификатор : 2
Формат : AC-3
Формат/Информация : Audio Coding 3
Расширение режима : CM (complete main)
Параметр Endianness формата : Big
Идентификатор кодека : A_AC3
Продолжительность : 1 ч. 9 м.
Вид битрейта : Постоянный
Битрейт : 160 Кбит/сек
Каналы : 2 канала
Расположение каналов : Front: L R
Частота : 48,0 КГц
Частота кадров : 31,250 кадров/сек (1536 spf)
Метод сжатия : С потерями
Размер потока : 79,8 Мбайт (6%)
Язык : Russian
Default : Да
Forced : Нет
Аудио #2
Идентификатор : 3
Формат : AC-3
Формат/Информация : Audio Coding 3
Расширение режима : CM (complete main)
Параметр Endianness формата : Big
Идентификатор кодека : A_AC3
Продолжительность : 1 ч. 9 м.
Вид битрейта : Постоянный
Битрейт : 192 Кбит/сек
Каналы : 2 канала
Расположение каналов : Front: L R
Частота : 48,0 КГц
Частота кадров : 31,250 кадров/сек (1536 spf)
Метод сжатия : С потерями
Размер потока : 95,8 Мбайт (7%)
Язык : English
Default : Нет
Forced : Нет


Релиз от: Temperest



   Похожие торренты   Торрент   Размер 
В этой теме нет новых непрочитанных сообщений. Цвет Рая / Цвет Бога / Rang-e khoda / The Color of Paradise (1999) DVD5

1 | 2

4.24 ГБ

В этой теме нет новых непрочитанных сообщений. Цвет Рая / Цвет Бога / Rang-e khoda / The Color of Paradise (1999) DVDRip-AVC | P

60 | 21

1.46 ГБ

В этой теме нет новых непрочитанных сообщений. Цвет Рая / Цвет Бога / Rang-e khoda / The Color of Paradise (1999) DVDRip

11 | 3

1.37 ГБ

В этой теме нет новых непрочитанных сообщений. Цвет денег / The Color of Money (1986) HDTVRip

9 | 4

2.05 ГБ

В этой теме нет новых непрочитанных сообщений. Цвет денег / The Color of Money (1986) BDRip 720p | D, Р2, Р, А

31 | 7

7.64 ГБ

В этой теме нет новых непрочитанных сообщений. Осенний цвет Киото / Kyoto Autumn Color (2007) BDRip 720p от NNNB

65 | 3

4.37 ГБ

В этой теме нет новых непрочитанных сообщений. Осенний цвет Киото / Kyoto Autumn Color (2007) BDRip 720p от Freeisland

1 | 5

4.57 ГБ




Вы не можете начинать темы
Вы не можете отвечать на сообщения
Вы не можете редактировать свои сообщения
Вы не можете удалять свои сообщения
Вы не можете добавлять вложения

Перейти:  
 Вход
ppkBB3cker v.2 © 2008-2014 @ PPK
[ Time : 0.033s | 17 Queries | GZIP : Off ]

cron