img image001 image001 image001 image001 image001 image001 image001 image001 image001 image001 image001 image001 image001 image001 image001 image001
Planets Sun Sun Sun
Статистика раздачи
Автор: Nickolas3434 | Размер: 3.35 ГБ | Добавлен: 07 авг 2016
Раздают: 20    Качают: 5
Скачать торрент
Скачать торрент
Описание торрента

СообщениеДобавлено: 07 авг 2016 

Название: Внутренний мир Дэйзи Кловер
Оригинальное название: Inside Daisy Clover
Год выхода: 1965
Страна: США
Студия: Park Place Production, Warner Bros.
Продолжительность: 02:03:15
Жанр: драма, мелодрама, музыка, ...
Режиссер: Роберт Маллиган
В ролях: Натали Вуд / Natalie Wood, Кристофер Пламмер / Christopher Plummer, Роберт Редфорд / Robert Redford, Родди МакДауэлл / Roddy McDowall, Рут Гордон / Ruth Gordon, Кэтрин Бард / Katharine Bard, Питер Хельм / Peter Helm, Бетти Харфорд / Betty Harford, Джон Хэйл /John Hale, Оттола Несмит / Ottola Nesmith, Эдна Холланд / Edna Holland, Гертруда Флинн / Gertrude Flynn, ...
Перевод: Профессиональный (многоголосный, закадровый) ?
О фильме: Молодая девушка Дэйзи Кловер, мечтающая попасть в Голливуд, записала пластинку с песней и отправила на студию. Запись привлекла внимание продюсера Реймонда Свона и Дэйзи стала звездой. Жизнь голливудской дивы нелегка, и Дэйзи пришлось пожертвовать не только собой, чтобы удержаться «на плаву»…

Кодек: x264
Качество: DVDRip-AVC
Видео: 1024x424, 3500 kbps, 25 fps
Аудио #1: AC-3, 2 ch, 192 kbps (Rus) - MVO
Аудио #2: AC-3, 2 ch, 192 kbps (Eng)
Субтитры: Английские
За исходник спасибо - palmeiras

x264 [info]: frame I:1081 Avg QP:16.13 size: 66653
x264 [info]: frame P:36481 Avg QP:18.67 size: 32638
x264 [info]: frame B:147328 Avg QP:20.45 size: 13392
x264 [info]: consecutive B-frames: 0.9% 1.4% 5.4% 16.0% 16.8% 47.7% 7.7% 2.1% 1.0% 0.4% 0.1% 0.2% 0.1%
Общее
Уникальный идентификатор : 198056650227225066620313334050961322519 (0x950052C621F4C747A0E34FF848057217)
Полное имя : Внутренний мир Дэйзи Кловер (Inside Daisy Clover) 1965 DVDRip.mkv
Формат : Matroska
Версия формата : Version 2
Размер файла : 3,35 Гбайт
Продолжительность : 2 ч. 3 м.
Общий поток : 3886 Кбит/сек
Дата кодирования : UTC 2016-08-06 21:59:49
Программа кодирования : mkvmerge v4.0.0 ('The Stars were mine') сборка от Jun 6 2010 16:18:42
Библиотека кодирования : libebml v1.0.0 + libmatroska v1.0.0
Видео
Идентификатор : 1
Формат : AVC
Формат/Информация : Advanced Video Codec
Профиль формата : High@L4.1
Параметр CABAC формата : Да
Параметр ReFrames формата : 12 кадров
Идентификатор кодека : V_MPEG4/ISO/AVC
Продолжительность : 2 ч. 3 м.
Битрейт : 3500 Кбит/сек
Ширина : 1024 пикселя
Высота : 424 пикселя
Соотношение сторон : 2,40:1
Режим частоты кадров : Постоянный
Частота кадров : 25,000 кадров/сек
Цветовое пространство : YUV
Субдискретизация насыщенности : 4:2:0
Битовая глубина : 8 бит
Тип развёртки : Прогрессивная
Бит/(Пиксели*Кадры) : 0.322
Размер потока : 2,95 Гбайт (88%)
Библиотека кодирования : x264 core 146 r2538 121396c
Настройки программы : cabac=1 / ref=12 / deblock=1:-3:-3 / analyse=0x3:0x133 / me=umh / subme=11 / psy=1 / psy_rd=1.00:0.00 / mixed_ref=1 / me_range=32 / chroma_me=1 / trellis=2 / 8x8dct=1 / cqm=0 / deadzone=21,11 / fast_pskip=0 / chroma_qp_offset=-2 / threads=12 / lookahead_threads=2 / sliced_threads=0 / nr=0 / decimate=0 / interlaced=0 / bluray_compat=0 / constrained_intra=0 / bframes=12 / b_pyramid=2 / b_adapt=2 / b_bias=0 / direct=3 / weightb=1 / open_gop=0 / weightp=2 / keyint=250 / keyint_min=25 / scenecut=40 / intra_refresh=0 / rc=2pass / mbtree=0 / bitrate=3500 / ratetol=1.0 / qcomp=0.60 / qpmin=0 / qpmax=69 / qpstep=4 / cplxblur=20.0 / qblur=0.5 / ip_ratio=1.40 / pb_ratio=1.30 / aq=1:0.80
Язык : English
Default : Нет
Forced : Нет
Аудио #1
Идентификатор : 2
Формат : AC-3
Формат/Информация : Audio Coding 3
Расширение режима : CM (complete main)
Параметр Endianness формата : Big
Идентификатор кодека : A_AC3
Продолжительность : 2 ч. 3 м.
Вид битрейта : Постоянный
Битрейт : 192 Кбит/сек
Каналы : 2 канала
Расположение каналов : Front: L R
Частота : 48,0 КГц
Частота кадров : 31,250 кадров/сек (1536 spf)
Метод сжатия : С потерями
Размер потока : 169 Мбайт (5%)
Заголовок : MVO
Язык : Russian
Default : Нет
Forced : Нет
Аудио #2
Идентификатор : 3
Формат : AC-3
Формат/Информация : Audio Coding 3
Расширение режима : CM (complete main)
Параметр Endianness формата : Big
Идентификатор кодека : A_AC3
Продолжительность : 2 ч. 3 м.
Вид битрейта : Постоянный
Битрейт : 192 Кбит/сек
Каналы : 2 канала
Расположение каналов : Front: L R
Частота : 48,0 КГц
Частота кадров : 31,250 кадров/сек (1536 spf)
Метод сжатия : С потерями
Задержка видео : 24 мс.
Размер потока : 169 Мбайт (5%)
Язык : English
Default : Нет
Forced : Нет
Текст
Идентификатор : 4
Формат : UTF-8
Идентификатор кодека : S_TEXT/UTF8
Идентификатор кодека/Информация : UTF-8 Plain Text
Язык : English
Default : Нет
Forced : Нет





   Похожие торренты   Торрент   Размер 
В этой теме нет новых непрочитанных сообщений. Внутренний мир Дейзи Кловер / Inside Daisy Clover (1965) DVDRip-AVC | P

27 | 8

1.92 ГБ

В этой теме нет новых непрочитанных сообщений. Дэйзи Бриллиант / Daisy Diamond (2007) DVDRip | L1, Sub

1019 | 216

1.37 ГБ

В этой теме нет новых непрочитанных сообщений. Дэйзи Бриллиант / Daisy Diamond (2007) DVDRip | Sub

87 | 7

1.46 ГБ

В этой теме нет новых непрочитанных сообщений. Шофер Мисс Дэйзи / Driving Miss Daisy (1989) DVDRip

56 | 5

1.37 ГБ

В этой теме нет новых непрочитанных сообщений. Аллигатор по имени Дэйзи / An Alligator Named Daisy (1955) DVDRip от egoleshik | P2

7 | 2

1.37 ГБ

В этой теме нет новых непрочитанных сообщений. Шофер мисс Дэйзи / Driving Miss Daisy (1989) BDRemux

0 | 1

16.81 ГБ

В этой теме нет новых непрочитанных сообщений. Шофёр мисс Дэйзи / Driving Miss Daisy (1989) BDRip AVC

16 | 4

3.15 ГБ




Вы не можете начинать темы
Вы не можете отвечать на сообщения
Вы не можете редактировать свои сообщения
Вы не можете удалять свои сообщения
Вы не можете добавлять вложения

Перейти:  
 Вход
ppkBB3cker v.2 © 2008-2014 @ PPK
[ Time : 0.039s | 17 Queries | GZIP : Off ]

cron