img image001 image001 image001 image001 image001 image001 image001 image001 image001 image001 image001 image001 image001 image001 image001

Planets Sun Sun Sun
Статистика раздачи
Автор: PriZraK | Размер: 6.25 ГБ | Добавлен: 15 авг 2016
Раздают: 31    Качают: 19
Скачать торрент
Скачать торрент
Описание торрента

СообщениеДобавлено: 15 авг 2016 


Информация о фильме
Название: Мои счастливые звезды 2
Оригинальное название: Xia ri fu xing
Год выхода: 1985
Жанр: Комедия, боевик
Режиссер: Саммо Хунг
В ролях: Саммо Хунг, Ричард Нг, Эрик Цан, Джеки Чан, Юэнь Бяо, Сибелль Ху, Розамунд Кван, Киу Вэй Миу, Стэнли Фун
О фильме:
Особый отдел полиции Гонконга ведет расследование деятельности мафиозного клана. Агенту отдела удается внедрить в мафию своего осведомителя. Но в Бангкоке мафия расправляется со «стукачом». Полицейский из Бангкока и специальный агент начинают совместную операцию по ликвидации мафиозного клана.

Страна: Гонконг
Продолжительность: 01:34:28
Перевод:
1. Профессиональный многоголосый закадровый
2. Авторский одноголосый закадровый (Визгунов)
3. Авторский одноголосый закадровый (неизвестный)
Файл
Кодек: AVC, x264
Качество: BDRip 1080p
Видео: 1920x1016, 8888 kbps, 23,976 fps
Звук:
1. AC-3, 192 kbps, 48 KHz, 2 channels
2. AC-3, 192 kbps, 48 KHz, 2 channels
3. AC-3, 192 kbps, 48 KHz, 2 channels
General
Unique ID : 190806019188822475263713485987170519795 (0x8F8BE7104D76ED83BDAE77EAC2208AF3)
Complete name : X:FILMSГонконгМои счастливые звезды 2 [Xia ri fu xing, 1985] 1080p.mkv
Format : Matroska
Format version : Version 2
File size : 6.25 GiB
Duration : 1h 34mn
Overall bit rate : 9 454 Kbps
Encoded date : UTC 2016-08-10 18:47:20
Writing application : mkvmerge v5.2.1 ('A Far Off Place') built on Jan 2 2012 23:21:10
Writing library : libebml v1.2.3 + libmatroska v1.3.0
Video
ID : 1
Format : AVC
Format/Info : Advanced Video Codec
Format profile : High@L4.1
Format settings, CABAC : Yes
Format settings, ReFrames : 4 frames
Muxing mode : Header stripping
Codec ID : V_MPEG4/ISO/AVC
Duration : 1h 34mn
Bit rate : 8 888 Kbps
Width : 1 920 pixels
Height : 1 016 pixels
Display aspect ratio : 1.890
Frame rate mode : Constant
Frame rate : 23.976 (24000/1001) fps
Color space : YUV
Chroma subsampling : 4:2:0
Bit depth : 8 bits
Scan type : Progressive
Bits/(Pixel*Frame) : 0.190
Stream size : 5.74 GiB (92%)
Title : Twinkle, Twinkle, Lucky Stars 2
Writing library : x264 core 120 r2164 da19765
Encoding settings : cabac=1 / ref=3 / deblock=1:0:0 / analyse=0x3:0x113 / me=hex / subme=7 / psy=1 / psy_rd=1.00:0.00 / mixed_ref=1 / me_range=16 / chroma_me=1 / trellis=1 / 8x8dct=1 / cqm=0 / deadzone=21,11 / fast_pskip=1 / chroma_qp_offset=-2 / threads=3 / sliced_threads=0 / nr=0 / decimate=1 / interlaced=0 / bluray_compat=0 / constrained_intra=0 / bframes=3 / b_pyramid=2 / b_adapt=1 / b_bias=0 / direct=1 / weightb=1 / open_gop=0 / weightp=2 / keyint=240 / keyint_min=23 / scenecut=40 / intra_refresh=0 / rc_lookahead=40 / rc=2pass / mbtree=1 / bitrate=8888 / ratetol=1.0 / qcomp=0.60 / qpmin=0 / qpmax=69 / qpstep=4 / cplxblur=20.0 / qblur=0.5 / ip_ratio=1.40 / aq=1:1.00
Language : English
Default : Yes
Forced : No
Audio #1
ID : 2
Format : AC-3
Format/Info : Audio Coding 3
Format profile : Dolby Digital
Mode extension : CM (complete main)
Format settings, Endianness : Big
Muxing mode : Header stripping
Codec ID : A_AC3
Duration : 1h 34mn
Bit rate mode : Constant
Bit rate : 192 Kbps
Channel(s) : 2 channels
Channel positions : Front: L R
Sampling rate : 48.0 KHz
Frame rate : 31.250 fps (1536 spf)
Compression mode : Lossy
Stream size : 130 MiB (2%)
Title : Многоголосый
Language : Russian
Default : No
Forced : No
Audio #2
ID : 3
Format : AC-3
Format/Info : Audio Coding 3
Mode extension : CM (complete main)
Format settings, Endianness : Big
Muxing mode : Header stripping
Codec ID : A_AC3
Duration : 1h 34mn
Bit rate mode : Constant
Bit rate : 192 Kbps
Channel(s) : 2 channels
Channel positions : Front: L R
Sampling rate : 48.0 KHz
Frame rate : 31.250 fps (1536 spf)
Compression mode : Lossy
Stream size : 130 MiB (2%)
Title : Визгунов
Language : Russian
Default : No
Forced : No
Audio #3
ID : 4
Format : AC-3
Format/Info : Audio Coding 3
Mode extension : CM (complete main)
Format settings, Endianness : Big
Muxing mode : Header stripping
Codec ID : A_AC3
Duration : 1h 34mn
Bit rate mode : Constant
Bit rate : 192 Kbps
Channel(s) : 2 channels
Channel positions : Front: L R
Sampling rate : 48.0 KHz
Frame rate : 31.250 fps (1536 spf)
Compression mode : Lossy
Stream size : 130 MiB (2%)
Title : Неизвестный
Language : Russian
Default : No
Forced : No




   Похожие торренты   Торрент   Размер 
В этой теме нет новых непрочитанных сообщений. Мои счастливые звезды / Fuk sing go jiu (1985) BDRip 1080p от Freak Chaos | A

4 | 0

6.26 ГБ

В этой теме нет новых непрочитанных сообщений. Мои счастливые звезды 2 / Xia ri fu xing / Twinkle Twinkle My Lucky Stars (1985) BDRip-AVC от MediaClub

395 | 9

3.1 ГБ

В этой теме нет новых непрочитанных сообщений. Мои счастливые звезды 2 / Xia ri fu xing / Twinkle Twinkle My Lucky Stars (1985) BDRip 720p от MediaClub

31 | 8

5.74 ГБ

В этой теме нет новых непрочитанных сообщений. Победители и грешники / Qi mou miao ji: Wu fu xing (1983) BDRip 1080p от Freak Chaos | P2, A

27 | 9

6.48 ГБ

В этой теме нет новых непрочитанных сообщений. Метеор-убийца / Feng yu shuang liu xing (1976) BDRip 1080p от Freak Chaos | P

0 | 0

6.78 ГБ

В этой теме нет новых непрочитанных сообщений. Сверкайте, сверкайте счастливые звезды / Непревзойденный боец / Мои счастливые звезды 2 / Twinkle, Twi (1985) DVDRip от KINOREAKTOR (Sheikn)

16 | 3

2.1 ГБ

В этой теме нет новых непрочитанных сообщений. Покровитель / The Protector (1985) BDRip 1080p от Freak Chaos | A, L1, P, P2

31 | 3

6.44 ГБ




Вы не можете начинать темы
Вы не можете отвечать на сообщения
Вы не можете редактировать свои сообщения
Вы не можете удалять свои сообщения
Вы не можете добавлять вложения

Перейти:  
 Вход
ppkBB3cker v.2 © 2008-2014 @ PPK
[ Time : 0.031s | 16 Queries | GZIP : Off ]

cron