img image001 image001 image001 image001 image001 image001 image001 image001 image001 image001 image001 image001 image001 image001 image001

Planets Sun Sun Sun
Статистика раздачи
Автор: PriZraK | Размер: 2.17 ГБ | Добавлен: 20 авг 2016
Раздают: 143    Качают: 26
Скачать торрент
Скачать торрент
Описание торрента

СообщениеДобавлено: 20 авг 2016 

Информация о фильме
Название: Двое во вселенной
Оригинальное название: La corrispondenza
Год выхода: 2016
Жанр: драма, мелодрама
Режиссер: Джузеппе Торнаторе
В ролях: Джереми Айронс, Ольга Куриленко, Саймон Джонс, Джим Уоррен, Шона МакДональд, Паоло Калабрези, Оскар Сандерс, Анна Савва, Ирина Кара, Сэмми Морено
О фильме:
Эд и Эми — ученый и студентка, изучающие теорию струн и космических двойников, вселенную и параллельные измерения. Они — родственные души, созданные друг для друга. Их любовь не знает границ и расстояний. Но внезапно Эд исчезает. И все, что у нее остается — это регулярно приходящие от него послания. В какую игру втягивают Эми? Эксперимент ученого, решившего скрыться от мира? Или игру высших сил, посылающих ей любимого в чужих обличьях? Или она продолжает видеть свет погасшей звезды?

Страна: Италия
Студия:
Business Location Sudtirol Alto Adige, Film Commission Torino-Piemonte, Ministero per i Beni e le Attivita Culturali Paco Cinematografica S.r.l.,
Rai Cinema, Trentino Film Commission
Продолжительность: 02:02:19
Перевод: дублированный [R5]
Файл
Качество: BDRip (AVC)
Видео: MPEG-4 AVC, 1650 Кбит/с, 1024x426
Аудио: Русский, английский (AC3, 6 ch, 448 Кбит/с)
Продолжительность: 02:02:19
Субтитры: Английский
General
Unique ID : 196798861020891521456518640854501001849 (0x940E14FA6C2735C4A3DBAEE6F3498A79)
Complete name : E:La.corrispondenza.2016.D.BDRip.AVC.ExKinoRay.mkv
Format : Matroska
Format version : Version 2
File size : 2.17 GiB
Duration : 2 h 2 min
Overall bit rate : 2 546 kb/s
Movie name : La corrispondenza 2016 from ExKinoRay
Encoded date : UTC 2016-08-19 02:40:30
Writing application : mkvmerge v7.6.0 ('Garden of Dreams') 32bit built on Feb 11 2015 00:18:47
Writing library : libebml v1.3.1 + libmatroska v1.4.2
Video
ID : 1
Format : AVC
Format/Info : Advanced Video Codec
Format profile : High@L4.1
Format settings, CABAC : Yes
Format settings, ReFrames : 14 frames
Codec ID : V_MPEG4/ISO/AVC
Duration : 2 h 2 min
Bit rate : 1 650 kb/s
Width : 1 024 pixels
Height : 426 pixels
Display aspect ratio : 2.40:1
Frame rate mode : Constant
Frame rate : 23.976 (23976/1000) FPS
Color space : YUV
Chroma subsampling : 4:2:0
Bit depth : 8 bits
Scan type : Progressive
Bits/(Pixel*Frame) : 0.158
Stream size : 1.36 GiB (63%)
Title : Enigma
Writing library : x264 core 144 r2525 40bb568
Encoding settings : cabac=1 / ref=14 / deblock=1:-2:-2 / analyse=0x3:0x113 / me=umh / subme=10 / psy=1 / psy_rd=1.00:0.05 / mixed_ref=1 / me_range=32 / chroma_me=1 / trellis=2 / 8x8dct=1 / cqm=0 / deadzone=21,11 / fast_pskip=0 / chroma_qp_offset=-3 / threads=12 / lookahead_threads=3 / sliced_threads=0 / nr=0 / decimate=0 / interlaced=0 / bluray_compat=0 / constrained_intra=0 / bframes=10 / b_pyramid=2 / b_adapt=2 / b_bias=0 / direct=3 / weightb=1 / open_gop=0 / weightp=2 / keyint=240 / keyint_min=23 / scenecut=40 / intra_refresh=0 / rc=2pass / mbtree=0 / bitrate=1650 / ratetol=1.0 / qcomp=0.60 / qpmin=0 / qpmax=51 / qpstep=4 / cplxblur=20.0 / qblur=0.5 / ip_ratio=1.40 / pb_ratio=1.30 / aq=1:1.00
Language : English
Default : Yes
Forced : No
Color range : Limited
Color primaries : BT.709
Transfer characteristics : BT.709
Matrix coefficients : BT.709
Audio #1
ID : 2
Format : AC-3
Format/Info : Audio Coding 3
Mode extension : CM (complete main)
Format settings, Endianness : Big
Codec ID : A_AC3
Duration : 2 h 2 min
Bit rate mode : Constant
Bit rate : 448 kb/s
Channel(s) : 6 channels
Channel positions : Front: L C R, Side: L R, LFE
Sampling rate : 48.0 kHz
Frame rate : 31.250 FPS (1536 spf)
Compression mode : Lossy
Stream size : 391 MiB (18%)
Title : Dub (R5)
Language : Russian
Default : Yes
Forced : No
Audio #2
ID : 3
Format : AC-3
Format/Info : Audio Coding 3
Mode extension : CM (complete main)
Format settings, Endianness : Big
Codec ID : A_AC3
Duration : 2 h 2 min
Bit rate mode : Constant
Bit rate : 448 kb/s
Channel(s) : 6 channels
Channel positions : Front: L C R, Side: L R, LFE
Sampling rate : 48.0 kHz
Frame rate : 31.250 FPS (1536 spf)
Compression mode : Lossy
Stream size : 391 MiB (18%)
Language : English
Default : No
Forced : No
Text
ID : 4
Format : UTF-8
Codec ID : S_TEXT/UTF8
Codec ID/Info : UTF-8 Plain Text
Language : English
Default : No
Forced : No
Menu
00:00:00.000 : en:00:00:00.000
00:14:13.625 : en:00:14:13.625
00:28:03.792 : en:00:28:03.792
00:39:34.833 : en:00:39:34.833
00:54:22.250 : en:00:54:22.250
01:07:10.875 : en:01:07:10.875
01:21:59.750 : en:01:21:59.750
01:32:51.542 : en:01:32:51.542


Релиз от:
Автор релиза:



   Похожие торренты   Торрент   Размер 
В этой теме нет новых непрочитанных сообщений. Двое во вселенной / La corrispondenza (2016) BDRip от ExKinoRay | Лицензия

519 | 111

1.46 ГБ

В этой теме нет новых непрочитанных сообщений. Двое во вселенной / La corrispondenza (2016) BDRip 1080p от ExKinoRay | Лицензия

189 | 107

11.46 ГБ

В этой теме нет новых непрочитанных сообщений. Двое во вселенной / La corrispondenza (2016) BDRip 720p от ExKinoRay | Лицензия

198 | 84

5.48 ГБ

В этой теме нет новых непрочитанных сообщений. Двое во вселенной / La corrispondenza (2016) BDRemux 1080p от ExKinoRay | Лицензия

34 | 34

19 ГБ

В этой теме нет новых непрочитанных сообщений. Двое во вселенной / La corrispondenza / The Correspondence (2016) BDRip от HQ-ViDEO | Лицензия

30 | 0

2.18 ГБ

В этой теме нет новых непрочитанных сообщений. Двое во вселенной / La corrispondenza (2016) BDRip | D

46 | 2

1.7 ГБ

В этой теме нет новых непрочитанных сообщений. Двое во вселенной / La corrispondenza (2016) BDRip 720p | D

115 | 7

4.82 ГБ




Вы не можете начинать темы
Вы не можете отвечать на сообщения
Вы не можете редактировать свои сообщения
Вы не можете удалять свои сообщения
Вы не можете добавлять вложения

Перейти:  
Для Мосгорсуда, Роскомнадзора и рекламодателей: mosgorsud-torrent[собачка]yandex.ru
 Вход
ppkBB3cker v.2 © 2008-2014 @ PPK
[ Time : 0.198s | 19 Queries | GZIP : Off ]

cron