img image001 image001 image001 image001 image001 image001 image001 image001 image001 image001 image001 image001 image001 image001 image001 image001

Planets Sun Sun Sun
Статистика раздачи
Автор: PriZraK | Размер: 2.95 ГБ | Добавлен: 28 авг 2016
Раздают: 590    Качают: 61
Скачать торрент
Скачать торрент
Описание торрента

СообщениеДобавлено: 28 авг 2016 

Информация о фильме
Название: Трудная мишень 2
Оригинальное название: Hard Target 2
Год выхода: 2016
Жанр: Боевик, триллер
Режиссер: Роэль Рейн
В ролях: Скотт Эдкинс, Роберт Неппер, Рона Митра, Темуэра Моррисон, Адам Саундерс, Джэйми Тимони, Питер Харди, Шон Кинэн
О фильме:
Продолжение культового экшн-триллера 1993 года о подпольных игрищах, где проплаченные «охотники» травят, как дичь, похищенных людей. Новой мишенью становится опальный мастер боевых искусств, который соблазнился деньгами, даже не подозревая, на что подписывается. Но и его преследователи еще не знают, с кем связались.

Страна: США
Студия: Living Films, Universal 1440 Entertainment
Продолжительность: 01:43:33
Перевод: Дублированный | Лицензия Blu-Ray CEE
Файл
Качество: HDRip (AVC)
Видео: MPEG-4 AVC, 3185 Kбит/с, 1024x576
Аудио: Русский, английский (AC3, 6 ch, 448 Кбит/с)
General
Unique ID : 238742711141163136839827002295690792887 (0xB39C2C739C9DDE4CB414D469B7D10FB7)
Complete name : E:Hard.Target.2.2016.D.AVC.ExKinoRay.mkv
Format : Matroska
Format version : Version 2
File size : 2.95 GiB
Duration : 1 h 43 min
Overall bit rate : 4 081 kb/s
Movie name : Hard Target 2 2016 from ExKinoray
Encoded date : UTC 2016-08-26 19:57:40
Writing application : mkvmerge v7.6.0 ('Garden of Dreams') 32bit built on Feb 11 2015 00:18:47
Writing library : libebml v1.3.1 + libmatroska v1.4.2
Video
ID : 1
Format : AVC
Format/Info : Advanced Video Codec
Format profile : High@L4.1
Format settings, CABAC : Yes
Format settings, ReFrames : 12 frames
Codec ID : V_MPEG4/ISO/AVC
Duration : 1 h 43 min
Bit rate : 3 185 kb/s
Width : 1 024 pixels
Height : 576 pixels
Display aspect ratio : 16:9
Frame rate mode : Constant
Frame rate : 23.976 (23976/1000) FPS
Color space : YUV
Chroma subsampling : 4:2:0
Bit depth : 8 bits
Scan type : Progressive
Bits/(Pixel*Frame) : 0.225
Stream size : 2.25 GiB (76%)
Title : Enigma
Writing library : x264 core 144 r2525 40bb568
Encoding settings : cabac=1 / ref=12 / deblock=1:-2:-2 / analyse=0x3:0x113 / me=umh / subme=10 / psy=1 / psy_rd=1.05:0.15 / mixed_ref=1 / me_range=32 / chroma_me=1 / trellis=2 / 8x8dct=1 / cqm=0 / deadzone=21,11 / fast_pskip=0 / chroma_qp_offset=-3 / threads=12 / lookahead_threads=2 / sliced_threads=0 / nr=0 / decimate=0 / interlaced=0 / bluray_compat=0 / constrained_intra=0 / bframes=9 / b_pyramid=2 / b_adapt=2 / b_bias=0 / direct=3 / weightb=1 / open_gop=0 / weightp=2 / keyint=240 / keyint_min=23 / scenecut=40 / intra_refresh=0 / rc=2pass / mbtree=0 / bitrate=3185 / ratetol=1.0 / qcomp=0.67 / qpmin=0 / qpmax=51 / qpstep=4 / cplxblur=20.0 / qblur=0.5 / ip_ratio=1.40 / pb_ratio=1.30 / aq=1:1.00
Language : English
Default : Yes
Forced : No
Color range : Limited
Color primaries : BT.709
Transfer characteristics : BT.709
Matrix coefficients : BT.709
Audio #1
ID : 2
Format : AC-3
Format/Info : Audio Coding 3
Mode extension : CM (complete main)
Format settings, Endianness : Big
Codec ID : A_AC3
Duration : 1 h 43 min
Bit rate mode : Constant
Bit rate : 448 kb/s
Channel(s) : 6 channels
Channel positions : Front: L C R, Side: L R, LFE
Sampling rate : 48.0 kHz
Frame rate : 31.250 FPS (1536 spf)
Compression mode : Lossy
Stream size : 332 MiB (11%)
Title : DUB (Blu-Ray SEE)
Language : Russian
Default : Yes
Forced : No
Audio #2
ID : 3
Format : AC-3
Format/Info : Audio Coding 3
Mode extension : CM (complete main)
Format settings, Endianness : Big
Codec ID : A_AC3
Duration : 1 h 43 min
Bit rate mode : Constant
Bit rate : 448 kb/s
Channel(s) : 6 channels
Channel positions : Front: L C R, Side: L R, LFE
Sampling rate : 48.0 kHz
Frame rate : 31.250 FPS (1536 spf)
Compression mode : Lossy
Stream size : 332 MiB (11%)
Language : English
Default : No
Forced : No
Menu
00:00:00.000 : en:Chapter 01
00:05:23.281 : en:Chapter 02
00:10:12.987 : en:Chapter 03
00:15:53.202 : en:Chapter 04
00:20:13.546 : en:Chapter 05
00:23:41.462 : en:Chapter 06
00:28:51.229 : en:Chapter 07
00:33:30.383 : en:Chapter 08
00:39:37.208 : en:Chapter 09
00:45:05.286 : en:Chapter 10
00:49:43.105 : en:Chapter 11
00:53:26.954 : en:Chapter 12
00:58:40.392 : en:Chapter 13
01:02:42.467 : en:Chapter 14
01:08:22.598 : en:Chapter 15
01:12:51.075 : en:Chapter 16
01:17:35.401 : en:Chapter 17
01:20:58.270 : en:Chapter 18
01:26:11.500 : en:Chapter 19
01:31:42.247 : en:Chapter 20


Релиз от:
Автор релиза:



   Похожие торренты   Торрент   Размер 
В этой теме нет новых непрочитанных сообщений. Трудная мишень 2 / Hard Target 2 (2016) HDRip-AVC от ExKinoRay | Лицензия

299 | 46

744.8 МБ

В этой теме нет новых непрочитанных сообщений. Трудная мишень 2 / Hard Target 2 (2016) BDRip от ExKinoRay | Лицензия

753 | 87

2.04 ГБ

В этой теме нет новых непрочитанных сообщений. Трудная мишень 2 / Hard Target 2 (2016) BDRip от ExKinoRay | Лицензия

1195 | 234

1.46 ГБ

В этой теме нет новых непрочитанных сообщений. Трудная мишень 2 / Hard Target 2 (2016) BDRemux 1080p от ExKinoRay | Лицензия

119 | 61

28.48 ГБ

В этой теме нет новых непрочитанных сообщений. Трудная мишень 2 / Hard Target 2 (2016) BDRip 1080p от ExKinoRay | Лицензия

939 | 378

11.16 ГБ

В этой теме нет новых непрочитанных сообщений. Трудная мишень 2 / Hard Target 2 (2016) BDRemux 1080p от ExKinoRay | Лицензия

402 | 231

16.21 ГБ

В этой теме нет новых непрочитанных сообщений. Трудная мишень 2 / Hard Target 2 (2016) HDRip от MegaPeer | Лицензия

391 | 55

744.8 МБ




Вы не можете начинать темы
Вы не можете отвечать на сообщения
Вы не можете редактировать свои сообщения
Вы не можете удалять свои сообщения
Вы не можете добавлять вложения

Перейти:  
 Вход
ppkBB3cker v.2 © 2008-2014 @ PPK
[ Time : 0.030s | 18 Queries | GZIP : Off ]

cron