img image001 image001 image001 image001 image001 image001 image001 image001 image001 image001 image001 image001 image001 image001 image001

Planets Sun Sun Sun
Статистика раздачи
Автор: PriZraK | Размер: 1.46 ГБ | Добавлен: 30 авг 2016
Раздают: 60    Качают: 14
Скачать торрент
Скачать торрент
Описание торрента

СообщениеДобавлено: 30 авг 2016 


Репортёрша / Whiskey Tango Foxtrot
Страна: США
Производство: Paramount Pictures, Little Stranger, Broadway Video
Год выпуска: 2016
Жанр: драма, комедия, военный, биография
Продолжительность: 01:51:48
Режиссеры: Гленн Фикарра, Джон Рекуа
Авторы сценария: Роберт Кэрлок, Ким Баркер
В ролях: Тина Фей, Марго Робби, Мартин Фриман, Альфред Молина, Кристофер Эбботт, Билли Боб Торнтон, Николас Браун, Стивен Пикок
Описание: Фильм расскажет о деятельности журналистки в качестве репортёра в Афганистане и Пакистане, после прибытия туда в 2002 году...

Перевод: Авторский (одноголосый, закадровый) | Антон Карповский
Субтитры: русские (вшитые) / на надписи и речь пуштунов

Качество: BDRip
Формат: АVI
Видео кодек: XviD
Аудио кодек: АС3
Видео: 688x384 (16:9), 23.976 fps, XviD build 73 ~1 417 kbps avg, 0.224 bit/pixel
Аудио: 48 kHz, AC3 Dolby Digital, 3/2 (L,C,R,l,r) + LFE ch, ~448 kbps
Бюджет: $35 000 000
Дата премьеры (мир): 4 марта 2016

Релиз от: ylnian
General
Полное имя : Whiskey.Tango.Foxtrot.2016.BDRip-ylnian.avi
Формат : AVI
Формат/Информация : Audio Video Interleave
Размер файла : 1,46 Гбайт
Продолжительность : 1 ч. 51 м.
Общий поток : 1875 Кбит/сек
Программа кодирования : VirtualDubMod 1.5.10.2 (build 2540/release)
Библиотека кодирования : VirtualDubMod build 2540/release
Видео
Идентификатор : 0
Формат : MPEG-4 Visual
Профиль формата : Advanced Simple@L5
Параметр BVOP формата : 1
Параметр QPel формата : Нет
Параметр GMC формата : Без точки перехода
Параметр матрицы формата : Выборочная
Идентификатор кодека : XVID
Идентификатор кодека/Подсказка : XviD
Продолжительность : 1 ч. 51 м.
Битрейт : 1417 Кбит/сек
Ширина : 688 пикселей
Высота : 384 пикселя
Соотношение сторон : 16:9
Частота кадров : 23,976 (24000/1001) кадра/сек
Цветовое пространство : YUV
Субдискретизация насыщенности : 4:2:0
Битовая глубина : 8 бит
Тип развёртки : Прогрессивная
Метод сжатия : С потерями
Бит/(Пиксели*Кадры) : 0.224
Размер потока : 1,11 Гбайт (76%)
Библиотека кодирования : XviD 73
Аудио
Идентификатор : 1
Формат : AC-3
Формат/Информация : Audio Coding 3
Расширение режима : CM (complete main)
Параметр Endianness формата : Big
Идентификатор кодека : 2000
Продолжительность : 1 ч. 51 м.
Вид битрейта : Постоянный
Битрейт : 448 Кбит/сек
Каналы : 6 каналов
Расположение каналов : Front: L C R, Side: L R, LFE
Частота : 48,0 КГц
Частота кадров : 31,250 кадров/сек (1536 spf)
Метод сжатия : С потерями
Размер потока : 358 Мбайт (24%)
Выравнивание : Разделение по промежуткам
Продолжительность промежутка : 42 мс. (1,00 видеокадр)
Время предзагрузки промежутка : 500 мс.
Заголовок : RUS - AVO - Karpovsky




   Похожие торренты   Торрент   Размер 
В этой теме нет новых непрочитанных сообщений. Репортерша / Whiskey Tango Foxtrot (2016) BDRip от HQ-ViDEO

298 | 48

2.18 ГБ

В этой теме нет новых непрочитанных сообщений. Репортерша / Whiskey Tango Foxtrot (2016) BDRip-AVC от New-Team | iTunes

670 | 101

2.13 ГБ

В этой теме нет новых непрочитанных сообщений. Репортерша / Whiskey Tango Foxtrot (2016) BDRip-AVC от HELLYWOOD | Лицензия

8 | 0

2.91 ГБ

В этой теме нет новых непрочитанных сообщений. Репортерша / Whiskey Tango Foxtrot (2016) BDRip от ExKinoRay | iTunes

951 | 103

1.41 ГБ

В этой теме нет новых непрочитанных сообщений. Репортерша / Whiskey Tango Foxtrot (2016) BDRip-AVC от New-Team | iTunes

607 | 225

1.41 ГБ

В этой теме нет новых непрочитанных сообщений. Репортерша / Whiskey Tango Foxtrot (2016) BDRip 1080p от HDReactor | D, A

11 | 0

11.94 ГБ

В этой теме нет новых непрочитанных сообщений. Репортерша / Whiskey Tango Foxtrot (2016) BDRip-AVC от HELLYWOOD | Лицензия

33 | 0

1.46 ГБ




Вы не можете начинать темы
Вы не можете отвечать на сообщения
Вы не можете редактировать свои сообщения
Вы не можете удалять свои сообщения
Вы не можете добавлять вложения

Перейти:  
Для Мосгорсуда, Роскомнадзора и рекламодателей: mosgorsud-torrent[собачка]yandex.ru
 Вход
ppkBB3cker v.2 © 2008-2014 @ PPK
[ Time : 1.007s | 16 Queries | GZIP : Off ]

Торрент трекер RUTOR.IN, Не можете зайти на rutor.org? Какой новый адрес рутор? Какое зеркало рутор? Не работает rutor.org и зеркала? Тогда наш торрент специально для вас. Rutor.in неофициальное зеркало rutor. В случае если у Вас заблокирован rutor или вдруг Вы не можете на него зайти, то Вы без труда сможете скачать бесплатно и без рекламы последние новинки кино, игр, сериалов и прочего у нас, на Rutor.in. Не нужно использовать прокси, чтобы зайти на рутор, достаточно воспользоваться нашим ресурсом. Все новые фильмы, игры, сериалы, книги и музыка за 2013 и 2014 годы через торрент бесплатно. Скачивайте фильмы в хорошем качестве, игры для пк, xbox, playstation без регистрации. У нас вы найдете новые Зарубежные сериалы и Русские сериалы 2013, 2014, 2015 годов. Оставайтесь с нами, качайте любимые фильмы, игры, сериалы, книги и музыку.
cron