img image001 image001 image001 image001 image001 image001 image001 image001 image001 image001 image001 image001 image001 image001 image001

Planets Sun Sun Sun
Статистика раздачи
Автор: Снежана | Размер: 6.86 ГБ | Добавлен: 19 июл 2013
Раздают: 1    Качают: 2
Скачать торрент
Скачать торрент
Описание торрента

СообщениеДобавлено: 19 июл 2013 

#77

Информация о фильме
Название: Зулусы
Оригинальное название: Zulu
Год выхода: 1964.
Жанр: боевик, драма, приключения, военный, история

Режиссер: Сай Эндфилд
В ролях: Стенли Бейкер, Джек Хоукинс, Улла Якобссон, Джеймс Бут, Майкл Кейн, Найджел Грин, Айвор Эммануель, Paul Daneman, Глинн Эдвардс, Нил МакКарти.

Слоган: «These are the days and nights of fury and honor and courage and cowardice that an entire century of empire-making and film-making can never surpass!»

О фильме: Южная Африка, разгар англо-бурской войны… Англичане еще не оправились после ужасного поражения 22 января 1879 года, но Британскую армию уже ждет новое, суровое испытание.
Сто сорок отважных валлийских стрелков вступят в кровавый бой с четырьмя тысячами свирепых воинов-зулусов. Из этой неравной двенадцатичасовой битвы храбрые солдаты выйдут героями. Но какой ценой?!


Рейтинг фильма: Кинопоиск: 8.000 (19) IMDB: 7.90 (11 714)

Выпущено: Великобритания.
Продолжительность: 02:18:24
Перевод: любительский одноголосный
Файл
Качество: BDRip
Видео: AVC, Bit rate: 6 189 Kbps, Nominal bit rate: 6 334 Kbps, 1280 х 544, x264.
Аудио: Audio #1: AC-3, Bit rate: 256 Kbps, Channel(s): 2 channels, Channel positions: L R, Sampling rate: 48.0 KHz, Stream size: 253 MiB (4%), Title: AC3 2.0 256k Odnogoloska, Language: Russian.
Audio #2: AC-3, Bit rate:448 Kbps, Channel(s): 2 channels, Channel positions: L R, Sampling rate: 48.0 KHz, Stream size: 443 MiB (6%), Title: AC3 2.0 448k, Language: English.
Audio #3: Vorbis, Bit rate: 64.0 Kbps, Channel(s): 2 channels, Sampling rate: 48.0 KHz, Stream size: 63.4 MiB (1%), Title: Commentary Track, Language: English.

Скриншоты/Screenshots:


Раздача от: By WannaBe



   Похожие торренты   Торрент   Размер 
В этой теме нет новых непрочитанных сообщений. Зулусы / Zulu (1964) BDRip 720p by msltel | P, A

1 | 2

5.89 ГБ

В этой теме нет новых непрочитанных сообщений. Зулусы / Zulu (1964) BDRip by msltel | P, A

3 | 3

2.59 ГБ

В этой теме нет новых непрочитанных сообщений. Зулусы / Zulu (1964) BDRip 1080p by msltel | P, A

0 | 10

11.22 ГБ

В этой теме нет новых непрочитанных сообщений. Зулусы / Zulu (1964) HDRip от KinoZalSat

5 | 3

2.05 ГБ

В этой теме нет новых непрочитанных сообщений. Зулусы / Битва у Роркс-Дрифт / Zulu / The Battle of Rorke's Drift (1964) BDRip от Rulya74 | P

159 | 5

1.46 ГБ

В этой теме нет новых непрочитанных сообщений. Теория заговора / Zulu (2013) BDRip 720p | P

189 | 18

5.71 ГБ

В этой теме нет новых непрочитанных сообщений. Теория заговора / Zulu (2013) BDRip 720p от CINEMANIA | L1

302 | 298

5.52 ГБ




Вы не можете начинать темы
Вы не можете отвечать на сообщения
Вы не можете редактировать свои сообщения
Вы не можете удалять свои сообщения
Вы не можете добавлять вложения

Перейти:  
Для Мосгорсуда, Роскомнадзора и рекламодателей: mosgorsud-torrent[собачка]yandex.ru
 Вход
ppkBB3cker v.2 © 2008-2014 @ PPK
[ Time : 0.320s | 16 Queries | GZIP : Off ]

Торрент трекер RUTOR.IN, Не можете зайти на rutor.org? Какой новый адрес рутор? Какое зеркало рутор? Не работает rutor.org и зеркала? Тогда наш торрент специально для вас. Rutor.in неофициальное зеркало rutor. В случае если у Вас заблокирован rutor или вдруг Вы не можете на него зайти, то Вы без труда сможете скачать бесплатно и без рекламы последние новинки кино, игр, сериалов и прочего у нас, на Rutor.in. Не нужно использовать прокси, чтобы зайти на рутор, достаточно воспользоваться нашим ресурсом. Все новые фильмы, игры, сериалы, книги и музыка за 2013 и 2014 годы через торрент бесплатно. Скачивайте фильмы в хорошем качестве, игры для пк, xbox, playstation без регистрации. У нас вы найдете новые Зарубежные сериалы и Русские сериалы 2013, 2014, 2015 годов. Оставайтесь с нами, качайте любимые фильмы, игры, сериалы, книги и музыку.
cron