img image001 image001 image001 image001 image001 image001 image001 image001 image001 image001 image001 image001 image001 image001 image001 image001

Planets Sun Sun Sun
Статистика раздачи
Автор: PriZraK | Размер: 6.76 ГБ | Добавлен: 23 сен 2016
Раздают: 189    Качают: 123
Скачать торрент
Скачать торрент
Описание торрента

СообщениеДобавлено: 23 сен 2016 

Варкрафт / Warcraft (2016) (2016)
от HQCLUB

Информация о фильме
Название: Варкрафт
Оригинальное название: Warcraft
Год выхода: 2016
Жанр: Фантастика, Боевик, Приключения
В ролях: Трэвис Фиммел (Anduin Lothar), Пола Пэттон (Garona), Бен Фостер (Medivh), Доминик Купер (Llane Wrynn), Тоби Кеббелл (Durotan / Antonidas), Бен Шнетцер (Khadgar), Роберт Казински (Orgrim), Клэнси Браун (Blackhand), Дэниэл Ву (Gul'dan), Рут Негга (Lady Taria), Анна Галвин (Draka), Каллум Кит Ренни (Moroes).
Режиссёр: Дункан Джонс / Duncan Jones
О фильме:
Веками магия и неприступные стены защищали людей от любых напастей. Но древнее зло, побежденное и забытое тысячелетия назад, пробудилось.
«Два мира - одна судьба»


Релиз от -
Автор рипа: Rensler
Выпущено: Китай, Канада, Япония, США
Студия: Atlas Entertainment, Blizzard Entertainment, Legendary Pictures, Universal Pictures.
Продолжительность: 02:03:07
Перевод:
• Профессиональный (полное дублирование) BD EUR
Оригинальная аудиодорожка: Английская
Субтитры: Русские (форсированные, полные BD, полные Nunegsdli), Английские (полные, SDH)
Главы: Сохранены чаптеры с оригинального Blu-ray Disc
Файл:
Формат: MKV
Качество: BDRip 720p (источник: BLUEBIRD / Blu-ray Disc)
Видео: 1280x536 (2,40:1) at 23.976, x264@L4.1 ~ 6585 kbps avg, 0.408 bit/pixel
Аудио#1: 48 kHz/16-bit, AC3 Dolby Digital, 3/2 (L,C,R,l,r) + LFE ch, ~ 640 kbps avg | RUS, Blu-ray
Аудио#2: 48 kHz/16-bit, AC3 Dolby Digital, 3/2 (L,C,R,l,r) + LFE ch, ~ 640 kbps avg | ENG
Размер: 6,76 GB (DVD-9)
Скачать: Семпл
Цитатаlogx.264 писал:

x264 [info]: frame I:1652 Avg QP:15.58 size:148016
x264 [info]: frame P:42867 Avg QP:16.47 size: 61124
x264 [info]: frame B:132601 Avg QP:17.44 size: 24239
x264 [info]: consecutive B-frames: 2.6% 3.2% 12.7% 32.2% 18.5% 24.8% 4.5% 0.4%
x264 [info]: ref P L0: 50.1% 12.9% 14.5% 7.1% 5.2% 3.9% 3.1% 1.9% 1.3% 0.2% 0.0%
ЦитатаMediaInfo писал:
Уникальный идентификатор : 208031809405425022512632329030321575042 (0x9C817817B79E2C919D15058C9C3C1482)
Полное имя : Warcraft.2016.BluRay.720p.Rus.Eng.-HQCLUB.mkv
Формат : Matroska
Версия формата : Version 4 / Version 2
Размер файла : 6,76 Гбайт
Продолжительность : 2 ч. 3 м.
Общий поток : 7866 Кбит/сек
Название фильма : Варкрафт / Warcraft (2016) Blu-ray 720p
Дата кодирования : UTC 2016-09-22 18:25:16
Программа кодирования : mkvmerge v8.3.0 ('Over the Horizon') 64bit
Библиотека кодирования : libebml v1.3.1 + libmatroska v1.4.2
Attachements : Cover.png
Видео
Идентификатор : 1
Формат : AVC
Формат/Информация : Advanced Video Codec
Профиль формата : High@L4.1
Параметр CABAC формата : Да
Параметр ReFrames формата : 9 кадров
Идентификатор кодека : V_MPEG4/ISO/AVC
Продолжительность : 2 ч. 3 м.
Битрейт : 6585 Кбит/сек
Ширина : 1280 пикселей
Высота : 526 пикселей
Соотношение сторон : 2,40:1
Режим частоты кадров : Постоянный
Частота кадров : 23,976 кадра/сек
Цветовое пространство : YUV
Субдискретизация насыщенности : 4:2:0
Битовая глубина : 8 бит
Тип развёртки : Прогрессивная
Бит/(Пиксели*Кадры) : 0.408
Размер потока : 5,53 Гбайт (82%)
Заголовок : Release by Rensler
Библиотека кодирования : x264 core 148 r2692 64f4e24
Настройки программы : cabac=1 / ref=9 / deblock=1:-3:-2 / analyse=0x3:0x113 / me=umh / subme=11 / psy=1 / psy_rd=1.00:0.02 / mixed_ref=1 / me_range=48 / chroma_me=1 / trellis=2 / 8x8dct=1 / cqm=0 / deadzone=21,11 / fast_pskip=0 / chroma_qp_offset=-3 / threads=3 / lookahead_threads=1 / sliced_threads=0 / nr=0 / decimate=0 / interlaced=0 / bluray_compat=0 / constrained_intra=0 / bframes=7 / b_pyramid=2 / b_adapt=2 / b_bias=0 / direct=3 / weightb=1 / open_gop=0 / weightp=2 / keyint=230 / keyint_min=23 / scenecut=40 / intra_refresh=0 / rc_lookahead=60 / rc=2pass / mbtree=0 / bitrate=6585 / ratetol=1.0 / qcomp=0.60 / qpmin=0 / qpmax=69 / qpstep=4 / cplxblur=20.0 / qblur=0.5 / vbv_maxrate=50000 / vbv_bufsize=62500 / nal_hrd=none / filler=0 / ip_ratio=1.23 / pb_ratio=1.18 / aq=2:1.00
Default : Да
Forced : Нет
Аудио #1
Идентификатор : 2
Формат : AC-3
Формат/Информация : Audio Coding 3
Расширение режима : CM (complete main)
Параметр Endianness формата : Big
Идентификатор кодека : A_AC3
Продолжительность : 2 ч. 3 м.
Вид битрейта : Постоянный
Битрейт : 640 Кбит/сек
Каналы : 6 каналов
Расположение каналов : Front: L C R, Side: L R, LFE
Частота : 48,0 КГц
Метод сжатия : С потерями
Размер потока : 564 Мбайт (8%)
Заголовок : BD EUR
Язык : Russian
Default : Да
Forced : Нет
Аудио #2
Идентификатор : 3
Формат : AC-3
Формат/Информация : Audio Coding 3
Расширение режима : CM (complete main)
Параметр Endianness формата : Big
Идентификатор кодека : A_AC3
Продолжительность : 2 ч. 3 м.
Вид битрейта : Постоянный
Битрейт : 640 Кбит/сек
Каналы : 6 каналов
Расположение каналов : Front: L C R, Side: L R, LFE
Частота : 48,0 КГц
Метод сжатия : С потерями
Размер потока : 564 Мбайт (8%)
Заголовок : Original
Язык : English
Default : Нет
Forced : Нет
Текст #1
Идентификатор : 4
Формат : UTF-8
Идентификатор кодека : S_TEXT/UTF8
Идентификатор кодека/Информация : UTF-8 Plain Text
Заголовок : Forced
Язык : Russian
Default : Да
Forced : Нет
Текст #2
Идентификатор : 5
Формат : UTF-8
Идентификатор кодека : S_TEXT/UTF8
Идентификатор кодека/Информация : UTF-8 Plain Text
Заголовок : Full
Язык : Russian
Default : Нет
Forced : Нет
Текст #3
Идентификатор : 6
Формат : UTF-8
Идентификатор кодека : S_TEXT/UTF8
Идентификатор кодека/Информация : UTF-8 Plain Text
Заголовок : Full Nunegsdli
Язык : Russian
Default : Нет
Forced : Нет
Текст #4
Идентификатор : 7
Формат : UTF-8
Идентификатор кодека : S_TEXT/UTF8
Идентификатор кодека/Информация : UTF-8 Plain Text
Заголовок : Full
Язык : English
Default : Нет
Forced : Нет
Текст #5
Идентификатор : 8
Формат : UTF-8
Идентификатор кодека : S_TEXT/UTF8
Идентификатор кодека/Информация : UTF-8 Plain Text
Заголовок : SDH
Язык : English
Default : Нет
Forced : Нет
Меню
00:00:00.000 : en:Chapter 01
00:09:26.482 : en:Chapter 02
00:15:49.406 : en:Chapter 03
00:22:36.146 : en:Chapter 04
00:29:16.171 : en:Chapter 05
00:38:43.321 : en:Chapter 06
00:46:44.092 : en:Chapter 07
00:53:02.679 : en:Chapter 08
00:56:17.332 : en:Chapter 09
01:02:43.926 : en:Chapter 10
01:07:48.314 : en:Chapter 11
01:12:24.548 : en:Chapter 12
01:17:13.045 : en:Chapter 13
01:22:45.669 : en:Chapter 14
01:26:32.145 : en:Chapter 15
01:32:29.669 : en:Chapter 16
01:40:25.102 : en:Chapter 17
01:47:38.118 : en:Chapter 18
01:51:12.832 : en:Chapter 19
01:53:58.832 : en:Chapter 20
02:03:07.129 : en:Chapter 21






   Похожие торренты   Торрент   Размер 
В этой теме нет новых непрочитанных сообщений. Варкрафт / Warcraft (2016) BDRip от HQCLUB | Лицензия

23 | 1

2.18 ГБ

В этой теме нет новых непрочитанных сообщений. Варкрафт / Warcraft (2016) BDRip 720p от HELLYWOOD | Лицензия, A

17 | 0

7.74 ГБ

В этой теме нет новых непрочитанных сообщений. Варкрафт / Warcraft (2016) BDRip 720p от ExKinoRay | D, A | Лицензия

18 | 0

8.89 ГБ

В этой теме нет новых непрочитанных сообщений. Варкрафт / Warcraft (2016) BDRip 720p от NNNB | 60 fps | Лицензия

103 | 76

5.14 ГБ

В этой теме нет новых непрочитанных сообщений. Варкрафт / Warcraft (2016) BDRip 720p от New-Team | Лицензия

20 | 166

6.36 ГБ

В этой теме нет новых непрочитанных сообщений. Варкрафт / Warcraft (2016) BDRip от MegaPeer | Лицензия

216 | 53

1.46 ГБ

В этой теме нет новых непрочитанных сообщений. Варкрафт / Warcraft (2016) BDRip от ImperiaFilm | КПК | Лицензия

32 | 10

420.94 МБ




Вы не можете начинать темы
Вы не можете отвечать на сообщения
Вы не можете редактировать свои сообщения
Вы не можете удалять свои сообщения
Вы не можете добавлять вложения

Перейти:  
 Вход
ppkBB3cker v.2 © 2008-2014 @ PPK
[ Time : 0.039s | 19 Queries | GZIP : Off ]

cron