img image001 image001 image001 image001 image001 image001 image001 image001 image001 image001 image001 image001 image001 image001 image001

Planets Sun Sun Sun

COVID-19 - Последняя информация о коронавирусе на сайте Минздрава


Статистика раздачи
Автор: PriZraK | Размер: 5.82 ГБ | Добавлен: 30 сен 2016
Раздают: 7    Качают: 0
Скачать торрент
Скачать торрент
Описание торрента

СообщениеДобавлено: 30 сен 2016 

Информация о фильме
Название: Синьор Робинзон
Оригинальное название: Il signor Robinson, mostruosa storia d'amore e d'avventure
Год выпуска: 1976
Жанр: Комедия, приключения
Выпущено: Италия, Vides Cinematografica
Режиссер: Серджио Корбуччи
В ролях: Паоло Вилладжо, Зеуди Арайа, Анна Ногара, Перси Хоган
О фильме: Что делать современному высокоцивилизованному человеку, отправляющемуся в круиз по океану и попадающему в результате кораблекрушения на необитаемый остров? Правильно! Главное - не впадать в панику, а собраться с мыслями и, вспомнив знаменитого Робинзона Крузо, начать потихонечку обживаться. Но тут надо быть очень осторожным, так как даже неожиданное, но такое радостное обретение новоявленным Робинзоном милой Пятницы, может привести к некоторым сложностям: необитаемый ещё недавно остров на деле может оказаться не так уж необитаем, из-за ваших горячих чувств к желанной Пятнице великий бог Магду может сильно разгневаться, посылая громы и молнии на голову чужеземца, вы же рискуете оказаться главным ингредиентом в чане с очистительным варевом. Итак, будьте предельно осторожны, попав на необитаемый остров...

Продолжительность: 01:47:59
Перевод: Профессиональный многоголосый, профессиональный двухголосый
Субтитры: Русские
Файл
Качество: BDRip (720p)
Видео: MPEG-4 AVC, 7140 Кбит/с, 1280x692
Аудио #1: Русский, AC3, 2 ch, 192 Кбит/с | DVO (НТВ, Н.Варлей, Б.Токарев)
Аудио #2: Русский, AC3, 2 ch, 192 Кбит/с | MVO (РТР)
Аудио #3: Итальянский, AC3, 2 ch, 192 Кбит/с
Формат : Matroska
Версия формата : Version 2
Размер файла : 5,82 Гбайт
Продолжительность : 1 ч. 47 м.
Общий поток : 7719 Кбит/сек
Название фильма : ~V ad~
Дата кодирования : UTC 2016-09-30 11:02:53
Программа кодирования : mkvmerge v6.5.0 ('Isn't she lovely') built on Oct 20 2013 12:50:05
Библиотека кодирования : libebml v1.3.0 + libmatroska v1.4.1
Обложка : Yes
Attachments : cover.jpg
Видео
Идентификатор : 1
Формат : AVC
Формат/Информация : Advanced Video Codec
Профиль формата : High@L4.1
Параметр CABAC формата : Да
Параметр ReFrames формата : 9 кадров
Идентификатор кодека : V_MPEG4/ISO/AVC
Продолжительность : 1 ч. 47 м.
Битрейт : 7140 Кбит/сек
Ширина : 1280 пикселей
Высота : 692 пикселя
Соотношение сторон : 1,85:1
Режим частоты кадров : Постоянный
Частота кадров : 24,000 кадра/сек
Цветовое пространство : YUV
Субдискретизация насыщенности : 4:2:0
Битовая глубина : 8 бит
Тип развёртки : Прогрессивная
Бит/(Пиксели*Кадры) : 0.336
Размер потока : 5,27 Гбайт (91%)
Заголовок : ~V~
Библиотека кодирования : x264 core 148 r2705 3f5ed56
Настройки программы : cabac=1 / ref=9 / deblock=1:-3:-3 / analyse=0x3:0x133 / me=umh / subme=11 / psy=1 / psy_rd=1.00:0.00 / mixed_ref=1 / me_range=32 / chroma_me=1 / trellis=2 / 8x8dct=1 / cqm=0 / deadzone=21,11 / fast_pskip=0 / chroma_qp_offset=-2 / threads=12 / lookahead_threads=1 / sliced_threads=0 / nr=0 / decimate=0 / interlaced=0 / bluray_compat=0 / constrained_intra=0 / bframes=8 / b_pyramid=2 / b_adapt=2 / b_bias=0 / direct=2 / weightb=1 / open_gop=0 / weightp=2 / keyint=240 / keyint_min=24 / scenecut=40 / intra_refresh=0 / rc=2pass / mbtree=0 / bitrate=7140 / ratetol=1.0 / qcomp=0.60 / qpmin=0 / qpmax=69 / qpstep=4 / cplxblur=20.0 / qblur=0.5 / ip_ratio=1.30 / pb_ratio=1.20 / aq=3:0.85
Язык : English
Default : Да
Forced : Нет
Аудио #1
Идентификатор : 2
Формат : AC-3
Формат/Информация : Audio Coding 3
Расширение режима : CM (complete main)
Параметр Endianness формата : Big
Идентификатор кодека : A_AC3
Продолжительность : 1 ч. 47 м.
Вид битрейта : Постоянный
Битрейт : 192 Кбит/сек
Каналы : 2 канала
Расположение каналов : Front: L R
Частота : 48,0 КГц
Частота кадров : 31,250 кадров/сек (1536 spf)
Метод сжатия : С потерями
Размер потока : 148 Мбайт (2%)
Заголовок : DVO[НТВ- Н.Варлей, Б.Токарев]
Язык : Russian
Default : Да
Forced : Да
Аудио #2
Идентификатор : 3
Формат : AC-3
Формат/Информация : Audio Coding 3
Расширение режима : CM (complete main)
Параметр Endianness формата : Big
Идентификатор кодека : A_AC3
Продолжительность : 1 ч. 47 м.
Вид битрейта : Постоянный
Битрейт : 192 Кбит/сек
Каналы : 2 канала
Расположение каналов : Front: L R
Частота : 48,0 КГц
Частота кадров : 31,250 кадров/сек (1536 spf)
Метод сжатия : С потерями
Размер потока : 148 Мбайт (2%)
Заголовок : МVO[РТР]
Язык : Russian
Default : Нет
Forced : Нет
Аудио #3
Идентификатор : 4
Формат : AC-3
Формат/Информация : Audio Coding 3
Расширение режима : CM (complete main)
Параметр Endianness формата : Big
Идентификатор кодека : A_AC3
Продолжительность : 1 ч. 47 м.
Вид битрейта : Постоянный
Битрейт : 192 Кбит/сек
Каналы : 2 канала
Расположение каналов : Front: L R
Частота : 48,0 КГц
Частота кадров : 31,250 кадров/сек (1536 spf)
Метод сжатия : С потерями
Размер потока : 148 Мбайт (2%)
Язык : Italian
Default : Нет
Forced : Нет
Текст
Идентификатор : 5
Формат : UTF-8
Идентификатор кодека : S_TEXT/UTF8
Идентификатор кодека/Информация : UTF-8 Plain Text
Язык : Russian
Default : Нет
Forced : Нет
Меню
00:00:00.000 : :Chapter 1
00:08:35.958 : :Chapter 2
00:18:13.333 : :Chapter 3
00:27:50.542 : :Chapter 4
00:36:42.708 : :Chapter 5
00:44:43.000 : :Chapter 6
00:54:15.000 : :Chapter 7
01:06:29.708 : :Chapter 8
01:14:19.792 : :Chapter 9
01:21:47.333 : :Chapter 10
01:34:09.542 : :Chapter 11
01:46:39.458 : :Chapter 12
01:47:52.458 : :Chapter 13
x264 [info]: frame I:1103 Avg QP:17.67 size:159188
x264 [info]: frame P:34082 Avg QP:20.05 size: 68644
x264 [info]: frame B:120325 Avg QP:21.30 size: 27162


Сэмпл
Релиз от:

   Похожие торренты   Торрент   Размер 
В этой теме нет новых непрочитанных сообщений. Синьор Робинзон / Il signor Robinson, mostruosa storia d'amore e d'avventure (1976) BDRip от HQCLUB | P, P2, D

6 | 0

2.19 ГБ

В этой теме нет новых непрочитанных сообщений. Синьор Робинзон / Il signor Robinson, mostruosa storia d'amore e d'avventure (1976) BDRip 1080p | D, P

248 | 117

7.95 ГБ

В этой теме нет новых непрочитанных сообщений. Синьор Робинзон / Il signor Robinson, mostruosa storia d'amore e d'avventure (1976) BDRip от Koenig | D

301 | 34

1.45 ГБ

В этой теме нет новых непрочитанных сообщений. Синьор Робинзон / Il signor Robinson, mostruosa storia d'amore e d'avventure (1976) BDRip-AVC от Koenig | D, P

98 | 59

2.74 ГБ

В этой теме нет новых непрочитанных сообщений. Адам и Ева: Первая история любви / Adamo ed Eva, la prima storia d'amore (Луиджи Руссо, Энцо Дориа) [1983, мелодрама, приключения, DVDRip] VO

12 | 0

1.05 ГБ

В этой теме нет новых непрочитанных сообщений. Робинзон Крузо на Марсе / Robinson Crusoe on Mars (1964) BDRip от Koenig | P

2 | 0

2.18 ГБ

В этой теме нет новых непрочитанных сообщений. Убьём жену Уорда / Let's Kill Ward's Wife (2014) BDRip 1080p от HDReactor | A

8 | 3

4.31 ГБ




Вы не можете начинать темы
Вы не можете отвечать на сообщения
Вы не можете редактировать свои сообщения
Вы не можете удалять свои сообщения
Вы не можете добавлять вложения

Перейти:  
Контактная информация: rstracker[пёсик]yandex.ru
 Вход
ppkBB3cker v.2 © 2008-2014 @ PPK
[ Time : 0.039s | 18 Queries | GZIP : Off ]

cron