img image001 image001 image001 image001 image001 image001 image001 image001 image001 image001 image001 image001 image001 image001 image001

Planets Sun Sun Sun

COVID-19 - Последняя информация о коронавирусе на сайте Минздрава


Статистика раздачи
Автор: PriZraK | Размер: 2.74 ГБ | Добавлен: 02 окт 2016
Раздают: 21    Качают: 0
Скачать торрент
Скачать торрент
Описание торрента

СообщениеДобавлено: 02 окт 2016 


Информация о фильме
Название: 1984
Оригинальное название: Nineteen Eighty-Four
Год выхода: 1984
Жанр: фантастика, триллер, драма, мелодрама
Режиссер: Майкл Рэдфорд
В ролях: Ричард Бёртон, Джон Хёрт, Кирилл Кьюсак, Сюзанна Гамильтон, Грегор Фишер, Джеймс Уолкер
О фильме:
Для подавления массовых волнений Океании правящая партия заново воссоздает прошлое и настоящее. За каждым гражданином неусыпно наблюдают, каждому с помощью телевидения промывают мозги. И даже двое любовников вынуждены скрывать свои чувства, поскольку секс и межличностные отношения объявлены вне закона.

Страна: Великобритания
Студия: Holiday Film Productions Ltd.
Продолжительность: 01:50:31
Перевод: Профессиональный многоголосый, профессиональный двухголосый
Файл
Кодек: x264
Качество: BDRip-AVC (Nineteen.Eighty-Four.1984.BDRemux.1080p.3xRus.Eng)
Видео: MPEG-4 AVC, 2968 Кбит/с, 1024x552, 23.976 кадр/с
Аудио #1: АС3, 2 ch, 192 Кбит/с | Профессиональный двухголосый (НТВ+)
Аудио #2: АС3, 2 ch, 192 Кбит/с | Профессиональный многоголосый (Совэкспортфильм)
Аудио #3: АС3, 2 ch, 192 Кбит/с | Английский
Субтитры: Русские, английские
Общее
Уникальный идентификатор : 176357627844955712139033680243165343201 (0x84AD3E5F1C455B1FBC4771D0FD1DADE1)
Полное имя : Nineteen.Eighty-Four.1984.BDRip-AVC.mkv
Формат : Matroska
Версия формата : Version 4 / Version 2
Размер файла : 2,74 Гбайт
Продолжительность : 1 ч. 50 м.
Общий поток : 3545 Кбит/сек
Название фильма : Nineteen Eighty-Four by Koenig
Дата кодирования : UTC 2016-10-01 13:55:36
Программа кодирования : mkvmerge v9.2.0 ('Photograph') 32bit
Библиотека кодирования : libebml v1.3.3 + libmatroska v1.4.4
Обложка : Yes
Attachments : cover.jpg
Видео
Идентификатор : 1
Формат : AVC
Формат/Информация : Advanced Video Codec
Профиль формата : High@L4.1
Параметр CABAC формата : Да
Параметр ReFrames формата : 9 кадров
Идентификатор кодека : V_MPEG4/ISO/AVC
Продолжительность : 1 ч. 50 м.
Битрейт : 2968 Кбит/сек
Ширина : 1024 пикселя
Высота : 552 пикселя
Соотношение сторон : 1,85:1
Режим частоты кадров : Постоянный
Частота кадров : 23,976 (24000/1001) кадра/сек
Цветовое пространство : YUV
Субдискретизация насыщенности : 4:2:0
Битовая глубина : 8 бит
Тип развёртки : Прогрессивная
Бит/(Пиксели*Кадры) : 0.219
Размер потока : 2,29 Гбайт (84%)
Библиотека кодирования : x264 core 148 r2692 64f4e24
Настройки программы : cabac=1 / ref=9 / deblock=1:-3:-3 / analyse=0x3:0x133 / me=umh / subme=10 / psy=1 / psy_rd=1.00:0.10 / mixed_ref=1 / me_range=32 / chroma_me=1 / trellis=2 / 8x8dct=1 / cqm=0 / deadzone=21,11 / fast_pskip=0 / chroma_qp_offset=-3 / threads=3 / lookahead_threads=1 / sliced_threads=0 / nr=0 / decimate=1 / interlaced=0 / bluray_compat=0 / constrained_intra=0 / bframes=12 / b_pyramid=2 / b_adapt=2 / b_bias=0 / direct=3 / weightb=1 / open_gop=0 / weightp=2 / keyint=240 / keyint_min=23 / scenecut=40 / intra_refresh=0 / rc_lookahead=40 / rc=2pass / mbtree=1 / bitrate=2968 / ratetol=1.0 / qcomp=0.60 / qpmin=10 / qpmax=51 / qpstep=4 / cplxblur=20.0 / qblur=0.5 / vbv_maxrate=50000 / vbv_bufsize=62500 / nal_hrd=none / filler=0 / ip_ratio=1.40 / aq=1:1.00
Default : Да
Forced : Нет
Аудио #1
Идентификатор : 2
Формат : AC-3
Формат/Информация : Audio Coding 3
Расширение режима : CM (complete main)
Параметр Endianness формата : Big
Идентификатор кодека : A_AC3
Продолжительность : 1 ч. 50 м.
Вид битрейта : Постоянный
Битрейт : 192 Кбит/сек
Каналы : 2 канала
Расположение каналов : Front: L R
Частота : 48,0 КГц
Частота кадров : 31,250 кадров/сек (1536 spf)
Метод сжатия : С потерями
Размер потока : 152 Мбайт (5%)
Заголовок : DVO - НТВ+
Язык : Russian
Default : Да
Forced : Нет
Аудио #2
Идентификатор : 3
Формат : AC-3
Формат/Информация : Audio Coding 3
Расширение режима : CM (complete main)
Параметр Endianness формата : Big
Идентификатор кодека : A_AC3
Продолжительность : 1 ч. 50 м.
Вид битрейта : Постоянный
Битрейт : 192 Кбит/сек
Каналы : 2 канала
Расположение каналов : Front: L R
Частота : 48,0 КГц
Частота кадров : 31,250 кадров/сек (1536 spf)
Метод сжатия : С потерями
Размер потока : 152 Мбайт (5%)
Заголовок : MVO - Совэкспортфильм
Язык : Russian
Default : Нет
Forced : Нет
Аудио #3
Идентификатор : 4
Формат : AC-3
Формат/Информация : Audio Coding 3
Расширение режима : CM (complete main)
Параметр Endianness формата : Big
Идентификатор кодека : A_AC3
Продолжительность : 1 ч. 50 м.
Вид битрейта : Постоянный
Битрейт : 192 Кбит/сек
Каналы : 2 канала
Расположение каналов : Front: L R
Частота : 48,0 КГц
Частота кадров : 31,250 кадров/сек (1536 spf)
Метод сжатия : С потерями
Размер потока : 152 Мбайт (5%)
Заголовок : Original
Язык : English
Default : Нет
Forced : Нет
Текст #1
Идентификатор : 5
Формат : UTF-8
Идентификатор кодека : S_TEXT/UTF8
Идентификатор кодека/Информация : UTF-8 Plain Text
Продолжительность : 1 ч. 46 м.
Битрейт : 77 бит/сек
Count of elements : 1082
Размер потока : 60,7 Кбайт (0%)
Язык : Russian
Default : Да
Forced : Нет
Текст #2
Идентификатор : 6
Формат : UTF-8
Идентификатор кодека : S_TEXT/UTF8
Идентификатор кодека/Информация : UTF-8 Plain Text
Продолжительность : 1 ч. 46 м.
Битрейт : 45 бит/сек
Count of elements : 1081
Размер потока : 35,1 Кбайт (0%)
Язык : English
Default : Нет
Forced : Нет
Текст #3
Идентификатор : 7
Формат : UTF-8
Идентификатор кодека : S_TEXT/UTF8
Идентификатор кодека/Информация : UTF-8 Plain Text
Продолжительность : 1 ч. 50 м.
Битрейт : 45 бит/сек
Count of elements : 943
Размер потока : 37,1 Кбайт (0%)
Язык : English
Default : Нет
Forced : Нет
Меню
00:00:00.000 : en:
00:06:00.068 : en:
00:11:37.863 : en:
00:18:15.260 : en:
00:23:46.842 : en:
00:27:05.749 : en:
00:31:23.756 : en:
00:34:08.087 : en:
00:40:13.327 : en:
00:47:32.015 : en:
00:52:29.062 : en:
01:01:13.211 : en:
01:10:32.228 : en:
01:15:05.209 : en:
01:19:49.117 : en:
01:23:15.532 : en:
01:26:29.976 : en:
01:35:33.894 : en:
01:37:12.618 : en:
01:40:40.743 : en:

   Похожие торренты   Торрент   Размер 
В этой теме нет новых непрочитанных сообщений. 1984 / Nineteen Eighty-Four (1984) BDRemux 1080р | P, P2, L1

20 | 2

17.64 ГБ

В этой теме нет новых непрочитанных сообщений. Армейская история / A Soldier's Story (1984) BDRip-AVC от Koenig

25 | 1

2.74 ГБ

В этой теме нет новых непрочитанных сообщений. Мисс Марпл Агаты Кристи / Agatha Christie`s Miss Marple [1-12] (1984-1992) BDRip-AVC от Koenig | P

1 | 0

28.31 ГБ

В этой теме нет новых непрочитанных сообщений. Спецэффекты / Special Effects (1984) BDRip от Koenig | P2

0 | 0

1.42 ГБ

В этой теме нет новых непрочитанных сообщений. В компании волков / The Company of Wolves (1984) BDRip от Koenig | P

17 | 6

1.45 ГБ

В этой теме нет новых непрочитанных сообщений. Фавориты луны / Les favoris de la lune (1984) BDRip от Koenig | D

15 | 0

1.45 ГБ

В этой теме нет новых непрочитанных сообщений. Класс 1984 / Class of 1984 (1982) BDRip 1080p от NNNB | A

0 | 1

7.76 ГБ




Вы не можете начинать темы
Вы не можете отвечать на сообщения
Вы не можете редактировать свои сообщения
Вы не можете удалять свои сообщения
Вы не можете добавлять вложения

Перейти:  
Контактная информация: rstracker[пёсик]yandex.ru
 Вход
ppkBB3cker v.2 © 2008-2014 @ PPK
[ Time : 0.035s | 17 Queries | GZIP : Off ]

cron