img image001 image001 image001 image001 image001 image001 image001 image001 image001 image001 image001 image001 image001 image001 image001 image001

Planets Sun Sun Sun
Статистика раздачи
Автор: PriZraK | Размер: 11.54 ГБ | Добавлен: 11 окт 2016
Раздают: 11    Качают: 0
Скачать торрент
Скачать торрент
Описание торрента

СообщениеДобавлено: 11 окт 2016 

Это безумный, безумный, безумный, безумный мир / It's a Mad, Mad, Mad, Mad World

Расширенная версия / Extended Version

Русское название: Это безумный, безумный, безумный, безумный мир
Оригинальное название: It's a Mad, Mad, Mad, Mad World
Год выпуска: 1963
Жанр: боевик, комедия, криминал, приключения
Выпущено: США
Режиссер: Стэнли Крамер
В ролях: Спенсер Трэйси , Милтон Берл , Сид Сизар , Бадди Хэкетт , Этель Мерман , Микки Руни , Дик Шоун , Фил Силверс , Терри-Томас , Джонатан Уинтерс , Эди Адамс , Дороти Провайн
Перевод: Авторский одноголосый

Сюжет фильма:
По дороге в Лас-Вегас мчатся автомобили. В первом едет бизнесмен с женой и тещей. Во втором - дантист с супругой. В третьем - парочка приятелей. Они не знакомы друг с другом и вряд ли когда-нибудь встретились бы.

Качество: BDRip 720p
Формат: AVC (библиотека кодирования x.264)
Контейнер (Расширение): MKV
Видео: 1280x464, 6438 Кбит/сек, 23,976 кадр/сек, 0,452 Бит/[Пиксели*Кадры]
Аудио №1: русский / AC3 / 5.1 / 48 kHz / 640 kbps / |Авторский одноголосый, Ю.Сербин|
Аудио №2: русский / AC3 / 5.1 / 48 kHz / 640 kbps / |Авторский одноголосый, А.Гаврилов|
Аудио №3: английский / AC3 / 5.1 / 48 kHz / 640 kbps /
Субтитры: нет
Навигация по главам(Чаптеры): есть
Продолжительность: 03:17:35
Автор рипа: Сообщество:

Format : Matroska
Format version : Version 2
File size : 11.5 GiB
Duration : 3 h 17 min
Overall bit rate : 8 360 kb/s
Movie name : It's a Mad Mad Mad Mad World.(1063).BDRip.720p.[denis100]
Encoded date : UTC 2016-10-10 16:20:47
Writing application : mkvmerge v5.8.0 ('No Sleep / Pillow') built on Sep 2 2012 15:37:04
Writing library : libebml v1.2.3 + libmatroska v1.3.0
Video
ID : 1
Format : AVC
Format/Info : Advanced Video Codec
Format profile : High@L4.1
Format settings, CABAC : Yes
Format settings, ReFrames : 11 frames
Codec ID : V_MPEG4/ISO/AVC
Duration : 3 h 17 min
Bit rate : 6 438 kb/s
Width : 1 280 pixels
Height : 464 pixels
Display aspect ratio : 2.759
Frame rate mode : Constant
Frame rate : 23.976 (24000/1001) FPS
Color space : YUV
Chroma subsampling : 4:2:0
Bit depth : 8 bits
Scan type : Progressive
Bits/(Pixel*Frame) : 0.452
Stream size : 8.66 GiB (75%)
Title : It's a Mad Mad Mad Mad World.(1063).BDRip.720p.[denis100]
Writing library : x264 core 148 r2721 72d53ab
Encoding settings : cabac=1 / ref=11 / deblock=1:-3:-3 / analyse=0x3:0x133 / me=umh / subme=11 / psy=1 / psy_rd=1.00:0.00 / mixed_ref=1 / me_range=32 / chroma_me=1 / trellis=2 / 8x8dct=1 / cqm=0 / deadzone=21,11 / fast_pskip=0 / chroma_qp_offset=-2 / threads=6 / lookahead_threads=1 / sliced_threads=0 / nr=0 / decimate=1 / interlaced=0 / bluray_compat=0 / constrained_intra=0 / bframes=8 / b_pyramid=2 / b_adapt=2 / b_bias=0 / direct=3 / weightb=1 / open_gop=0 / weightp=2 / keyint=240 / keyint_min=23 / scenecut=40 / intra_refresh=0 / rc=2pass / mbtree=0 / bitrate=6438 / ratetol=1.0 / qcomp=0.60 / qpmin=0 / qpmax=69 / qpstep=4 / cplxblur=20.0 / qblur=0.5 / ip_ratio=1.40 / pb_ratio=1.30 / aq=1:1.00
Language : English
Default : Yes
Forced : No
Audio #1
ID : 2
Format : AC-3
Format/Info : Audio Coding 3
Mode extension : CM (complete main)
Format settings, Endianness : Big
Codec ID : A_AC3
Duration : 3 h 17 min
Bit rate mode : Constant
Bit rate : 640 kb/s
Channel(s) : 6 channels
Channel positions : Front: L C R, Side: L R, LFE
Sampling rate : 48.0 kHz
Frame rate : 31.250 FPS (1536 spf)
Compression mode : Lossy
Stream size : 904 MiB (8%)
Title : AVO, Ю.Сербин
Language : Russian
Default : Yes
Forced : No
Audio #2
ID : 3
Format : AC-3
Format/Info : Audio Coding 3
Mode extension : CM (complete main)
Format settings, Endianness : Big
Codec ID : A_AC3
Duration : 3 h 17 min
Bit rate mode : Constant
Bit rate : 640 kb/s
Channel(s) : 6 channels
Channel positions : Front: L C R, Side: L R, LFE
Sampling rate : 48.0 kHz
Frame rate : 31.250 FPS (1536 spf)
Compression mode : Lossy
Stream size : 904 MiB (8%)
Title : AVO, А.Гаврилов
Language : Russian
Default : No
Forced : No
Audio #3
ID : 4
Format : AC-3
Format/Info : Audio Coding 3
Mode extension : CM (complete main)
Format settings, Endianness : Big
Codec ID : A_AC3
Duration : 3 h 17 min
Bit rate mode : Constant
Bit rate : 640 kb/s
Channel(s) : 6 channels
Channel positions : Front: L C R, Side: L R, LFE
Sampling rate : 48.0 kHz
Frame rate : 31.250 FPS (1536 spf)
Compression mode : Lossy
Stream size : 904 MiB (8%)
Language : English
Default : No
Forced : No
Menu
00:00:00.000 : en:00:00:00.000
00:02:28.565 : en:00:02:28.565
00:06:37.814 : en:00:06:37.814
00:17:04.314 : en:00:17:04.314
00:24:57.454 : en:00:24:57.454
00:38:37.398 : en:00:38:37.398
00:48:41.126 : en:00:48:41.126
01:05:28.090 : en:01:05:28.090
01:19:52.204 : en:01:19:52.204
01:31:30.484 : en:01:31:30.484
01:36:23.569 : en:01:36:23.569
01:45:07.259 : en:01:45:07.259
01:53:26.800 : en:01:53:26.800
02:03:07.880 : en:02:03:07.880
02:12:50.420 : en:02:12:50.420
02:24:36.000 : en:02:24:36.000
02:33:33.203 : en:02:33:33.203
02:45:51.358 : en:02:45:51.358
02:55:12.251 : en:02:55:12.251
03:03:35.713 : en:03:03:35.713
03:12:22.322 : en:03:12:22.322
x264 [info]: frame I:1693 Avg QP:15.80 size:155945
x264 [info]: frame P:64749 Avg QP:18.22 size: 60474
x264 [info]: frame B:217794 Avg QP:19.27 size: 24608



   Похожие торренты   Торрент   Размер 
В этой теме нет новых непрочитанных сообщений. Это безумный, безумный, безумный, безумный мир / It's a Mad, Mad, Mad, Mad World (1963) BDRip от MegaPeer | Extended Version | A

14 | 1

2.45 ГБ

В этой теме нет новых непрочитанных сообщений. Это безумный, безумный, безумный, безумный мир / It's a Mad, Mad, Mad, Mad World (1963) BDRemux 1080p | Extended Version | A

0 | 0

46.56 ГБ

В этой теме нет новых непрочитанных сообщений. Этот безумный, безумный, безумный, безумный мир / It's a Mad, Mad, Mad, Mad World (1963) BDRip 1080p | P2, P1, A | Расширенная версия

0 | 0

18.19 ГБ

В этой теме нет новых непрочитанных сообщений. Этот безумный безумный, безумный, безумный мир / It's a Mad Mad Mad Mad World (Стэнли Крамер) [1963, комедия, криминал, приключения, HDRip] 2xAVO

9 | 0

2.07 ГБ

В этой теме нет новых непрочитанных сообщений. Это безумный, безумный, безумный, безумный мир / It's a Mad, Mad, Mad, Mad World (1963) BDRip от HQCLUB

153 | 16

2.9 ГБ

В этой теме нет новых непрочитанных сообщений. Это безумный, безумный, безумный, безумный мир / It's a Mad, Mad, Mad, Mad World (1963) BDRemux 1080p | P2, A

0 | 0

38.88 ГБ

В этой теме нет новых непрочитанных сообщений. Это безумный, безумный, безумный, безумный мир / It's a Mad Mad Mad Mad World (1963) BDRip-AVC

210 | 77

2.81 ГБ




Вы не можете начинать темы
Вы не можете отвечать на сообщения
Вы не можете редактировать свои сообщения
Вы не можете удалять свои сообщения
Вы не можете добавлять вложения

Перейти:  
 Вход
ppkBB3cker v.2 © 2008-2014 @ PPK
[ Time : 0.034s | 18 Queries | GZIP : Off ]

cron