img image001 image001 image001 image001 image001 image001 image001 image001 image001 image001 image001 image001 image001 image001 image001

Planets Sun Sun Sun
Статистика раздачи
Автор: Снежана | Размер: 5.33 ГБ | Добавлен: 22 июл 2013
Раздают: 0    Качают: 2
Скачать торрент
Скачать торрент
Описание торрента

СообщениеДобавлено: 22 июл 2013 

#77

Название: Вампирши-воительницы
Оригинальное название: Vampire Warriors
Год выхода: 2010
Страна: Гонконг
Жанр: боевик, триллер
Режиссер: Деннис Лау / Dennis Law
В ролях: Цзян Луся, Крисси Чау, Юэнь Ва, Чин Сиу-Хо, Пинки Чеунг, Дада Ло, Ксион Ксин-Ксин, Рок Цзи, Эй Лин

О фильме: Ар (Цзян Луся) – охотница за вампирами, но убивает она не всех подряд, а только «настоящих» вампиров. Вампиров-«вегетарианцев», питающихся животными, она не трогает, и более того – дружит с одним таким семейством. Параллельно она ищет свою сестру, которая пропала несколько лет назад. В конце концов она ее найдет, но вместе с ней найдет и проблемы на свою голову – в лице «демонического» вампира (Юэнь Ва), который питается кровью других упырей.

Информация о файле:
Качество: BDRip 720p
Формат: MKV
Продолжительность: 01:40:16
Язык (перевод):
1) Любительский одноголосый закадровый (Акира);
2) Оригинальная китайская дорожка (кантонский)
Субтитры: русские

Видео: H.264/AVC, 1280x688, 6700 Kbs, 24 fps
Аудио 1: DD 5.1, 48 KHz, 448 Kbps
Аудио 2: DD 5.1, 48 KHz, 448 Kbps

General
Unique ID : 181287462608424380895442837179443541717 (0x8862B1FDBC6C94658C17D35D5A2D76D5)
Complete name : ***Vampire.Warriors.720p.Full.mkv
Format : Matroska
File size : 5.33 GiB
Duration : 1h 40mn
Overall bit rate : 7 616 Kbps
Encoded date : UTC 2011-04-10 04:43:10
Writing application : mkvmerge v4.6.0 ('Still Crazy After All These Years') сборка от Mar 10 2011 02:50:32
Writing library : libebml v1.2.0 + libmatroska v1.1.0

Video
ID : 1
Format : AVC
Format/Info : Advanced Video Codec
Format profile : High@L4.1
Format settings, CABAC : Yes
Format settings, ReFrames : 5 frames
Codec ID : V_MPEG4/ISO/AVC
Duration : 1h 40mn
Bit rate : 6 700 Kbps
Width : 1 280 pixels
Height : 688 pixels
Display aspect ratio : 1.860
Frame rate : 24.000 fps
Color space : YUV
Chroma subsampling : 4:2:0
Bit depth : 8 bits
Scan type : Progressive
Bits/(Pixel*Frame) : 0.317
Stream size : 4.60 GiB (86%)
Writing library : x264 core 114 r1913 5fd3dce
Encoding settings : cabac=1 / ref=5 / deblock=1:-1:-1 / analyse=0x3:0x133 / me=umh / subme=6 / psy=1 / psy_rd=1.00:0.00 / mixed_ref=1 / me_range=16 / chroma_me=1 / trellis=2 / 8x8dct=1 / cqm=0 / deadzone=21,11 / fast_pskip=1 / chroma_qp_offset=-2 / threads=12 / sliced_threads=0 / nr=0 / decimate=1 / interlaced=0 / constrained_intra=0 / bframes=3 / b_pyramid=0 / b_adapt=2 / b_bias=0 / direct=3 / weightb=1 / open_gop=0 / weightp=2 / keyint=250 / keyint_min=24 / scenecut=40 / intra_refresh=0 / rc_lookahead=40 / rc=2pass / mbtree=1 / bitrate=6700 / ratetol=1.0 / qcomp=0.60 / qpmin=10 / qpmax=51 / qpstep=4 / cplxblur=20.0 / qblur=0.5 / ip_ratio=1.40 / aq=1:1.00

Audio #1
ID : 2
Format : AC-3
Format/Info : Audio Coding 3
Mode extension : CM (complete main)
Codec ID : A_AC3
Duration : 1h 40mn
Bit rate mode : Constant
Bit rate : 448 Kbps
Channel(s) : 6 channels
Channel positions : Front: L C R, Side: L R, LFE
Sampling rate : 48.0 KHz
Bit depth : 16 bits
Compression mode : Lossy
Stream size : 321 MiB (6%)
Title : Русский перевод (Акира @ hkcinema.ru)
Language : Russian

Audio #2
ID : 3
Format : AC-3
Format/Info : Audio Coding 3
Mode extension : CM (complete main)
Codec ID : A_AC3
Duration : 1h 40mn
Bit rate mode : Constant
Bit rate : 448 Kbps
Channel(s) : 6 channels
Channel positions : Front: L C R, Side: L R, LFE
Sampling rate : 48.0 KHz
Bit depth : 16 bits
Compression mode : Lossy
Stream size : 321 MiB (6%)
Title : Кантонский диалект
Language : Chinese

Text #1
ID : 4
Format : UTF-8
Codec ID : S_TEXT/UTF8
Codec ID/Info : UTF-8 Plain Text
Title : Русские субтитры
Language : Russian

Text #2
ID : 5
Format : PGS
Codec ID : S_HDMV/PGS
Codec ID/Info : The same subtitle format used on BDs/HD-DVDs
Title : Английские субтитры
Language : English






   Похожие торренты   Торрент   Размер 
В этой теме нет новых непрочитанных сообщений. Вампирши-воительницы / Vampire Warriors (2010) HDRip

0 | 2

1.37 ГБ

В этой теме нет новых непрочитанных сообщений. Воительницы в бикини / Bikini Warriors [01-12 из 12] (2015) HDTVRip 720p | AniDub

111 | 6

1.18 ГБ

В этой теме нет новых непрочитанных сообщений. Вампирши-лесбиянки / Vampiros Lesbos (1971) BDRip 720p | A

0 | 0

5.48 ГБ

В этой теме нет новых непрочитанных сообщений. Интервью с вампиром / Interview with the Vampire: The Vampire Chronicles (1994) BDRip 720p | D, P2, A

7 | 1

8.4 ГБ

В этой теме нет новых непрочитанных сообщений. Интервью с вампиром / Interview with the Vampire: The Vampire Chronicles (1994) BDRip 720p от olegek70

28 | 6

7.63 ГБ

В этой теме нет новых непрочитанных сообщений. Интервью с вампиром / Interview with the Vampire: The Vampire Chronicles (1994) BDRip (720p) от FLINTFILMS

0 | 3

4.34 ГБ

В этой теме нет новых непрочитанных сообщений. Мы - Воительницы с хвостиками / Ore, Twintail ni Narimasu [01-12 из 12] (2014) HDTVRip 720p

63 | 14

3.73 ГБ




Вы не можете начинать темы
Вы не можете отвечать на сообщения
Вы не можете редактировать свои сообщения
Вы не можете удалять свои сообщения
Вы не можете добавлять вложения

Перейти:  
Для Мосгорсуда, Роскомнадзора и рекламодателей: mosgorsud-torrent[собачка]yandex.ru
 Вход
ppkBB3cker v.2 © 2008-2014 @ PPK
[ Time : 0.033s | 20 Queries | GZIP : Off ]

cron