img image001 image001 image001 image001 image001 image001 image001 image001 image001 image001 image001 image001 image001 image001 image001 image001

Planets Sun Sun Sun
Статистика раздачи
Автор: Nickolas3434 | Размер: 746.9 МБ | Добавлен: 19 окт 2016
Раздают: 0    Качают: 0
Скачать торрент
Скачать торрент
Описание торрента

СообщениеДобавлено: 19 окт 2016 


Информация о фильме
Название: Опасная природа
Оригинальное название: Nature's Grave / Long Weekend
Год выхода: 2008
Жанр: триллер, драма
Режиссер: Джэми Блэнкс
В ролях: Джеймс Кэвизел, Клаудия Карван, Стар, Джон Брамптон, Роджер Уорд, Лара Робинсон, Гордон Уадделл, Джуд Бомонт, Гари МакМиллан, Эверетт Де Рош
О фильме: Чтобы наладить и оживить свои отношения двое супругов решают устроить романтическую поездку и провести выходные на природе. Для своего отдыха они выбирают тихое и заповедное местечко на берегу моря. Природа здесь настолько дика и первобытна, что, казалось, здесь еще никогда не ступала нога человека. Однако их неуклюжее поведение и невнимательность причиняет немало вреда окружающему живому миру. Но всякому терпению приходит конец. Вскоре они смогут почувствовать на себе, что природа может ответить на это вторжение и этот ответ будет предельно жестоким. После проведенной ночи перед ними встает вопрос: смогут ли они вообще выбраться из этого места живыми?

Страна: Австралия
Студия: Film Victoria, Screen Australia, Southern Arc Films
Продолжительность: 01:27:37
Перевод: Профессиональный (многоголосый, закадровый)
Субтитры: Нет
Семпл
Файл
Кодек: XviD
Качество: HDRip
Видео: 720x304 (2.37:1), 24 fps, XviD build 73 ~1054 kbps avg, 0.20 bit/pixel
Звук: 48 kHz, MPEG Layer 3, 2 ch, ~128.00 kbps avg
General
Complete name : Long.Weekend.2008.HDRip.ot.Portablius.avi
Format : AVI
Format/Info : Audio Video Interleave
File size : 747 MiB
Duration : 1 h 27 min
Overall bit rate : 1 192 kb/s
Writing application : VirtualDubMod 1.5.10.3 | www.virtualdub-fr.org || (build 2550/release)
Writing library : VirtualDubMod build 2550/release
Video
ID : 0
Format : MPEG-4 Visual
Format profile : Advanced Simple@L5
Format settings, BVOP : 1
Format settings, QPel : No
Format settings, GMC : No warppoints
Format settings, Matrix : Custom
Codec ID : XVID
Codec ID/Hint : XviD
Duration : 1 h 27 min
Bit rate : 1 055 kb/s
Width : 720 pixels
Height : 304 pixels
Display aspect ratio : 2.35:1
Frame rate : 24.000 FPS
Color space : YUV
Chroma subsampling : 4:2:0
Bit depth : 8 bits
Scan type : Progressive
Compression mode : Lossy
Bits/(Pixel*Frame) : 0.201
Stream size : 661 MiB (88%)
Writing library : XviD 73
Audio
ID : 1
Format : MPEG Audio
Format version : Version 1
Format profile : Layer 3
Codec ID : 55
Codec ID/Hint : MP3
Duration : 1 h 27 min
Bit rate mode : Constant
Bit rate : 128 kb/s
Channel(s) : 2 channels
Sampling rate : 48.0 kHz
Compression mode : Lossy
Stream size : 80.2 MiB (11%)
Alignment : Aligned on interleaves
Interleave, duration : 42 ms (1.00 video frame)
Interleave, preload duratio : 504 ms
Writing library : LAME3.99r
Encoding settings : -m s -V 4 -q 2 -lowpass 17 -b 128




   Похожие торренты   Торрент   Размер 
В этой теме нет новых непрочитанных сообщений. Опасная природа / Nature's Grave (2008) BDRip 720p | P, P2

2 | 3

4.92 ГБ

В этой теме нет новых непрочитанных сообщений. PBS: Природа - Дом животных / PBS: Nature - The Animal House (2011) HDRip от R.G.RealMT | P1

4 | 3

854.67 МБ

В этой теме нет новых непрочитанных сообщений. Эйс Вентура 2: Когда зовет природа / Ace Ventura: When Nature Calls (1995) HDRip-AVC от WazZzup | P2

97 | 9

745.84 МБ

В этой теме нет новых непрочитанных сообщений. Величественная природа / Majestic Nature (2014) BDRip-AVC

91 | 2

1.95 ГБ

В этой теме нет новых непрочитанных сообщений. Как устроена природа / BBC. How Nature Works [01-04 из 04] (2012) BDRip | P1

6 | 2

3.45 ГБ

В этой теме нет новых непрочитанных сообщений. Как устроена природа / BBC. How Nature Works [01-04 из 04] (2012) HDTVRip-AVC от -=HD-NET=-

15 | 5

2.39 ГБ

В этой теме нет новых непрочитанных сообщений. Брат-Природа / Brother Nature (2016) WEB-DLRip | L

1223 | 106

1.37 ГБ




Вы не можете начинать темы
Вы не можете отвечать на сообщения
Вы не можете редактировать свои сообщения
Вы не можете удалять свои сообщения
Вы не можете добавлять вложения

Перейти:  
 Вход
ppkBB3cker v.2 © 2008-2014 @ PPK
[ Time : 0.029s | 17 Queries | GZIP : Off ]

cron