img image001 image001 image001 image001 image001 image001 image001 image001 image001 image001 image001 image001 image001 image001 image001

Planets Sun Sun Sun
Статистика раздачи
Автор: PriZraK | Размер: 5.07 ГБ | Добавлен: 29 окт 2016
Раздают: 27    Качают: 0
Скачать торрент
Скачать торрент
Описание торрента

СообщениеДобавлено: 29 окт 2016 

Лига Богов / League of Gods
Год выпуска: 2016
Страна: Гонконг, Китай
Жанр: фэнтези, исторический
Продолжительность: 01:48:53
Перевод: Любительский (двухголосый закадровый)
Cубтитры: китайский/английский хардсаб
Русские субтитры: есть
Режиссер: Коан Хуэй / Koan Hui, Верни Ён / Vernie Yeung
В ролях: Джет Ли, Фань Бин Бин, Тони Люн Ка Фай, Луис Ку, Анджела Бейби, Вэнь Чжан, Джеки Хеунг
Описание: История короля Чжоу Шана (Тони Люн), который становится кровавым тираном под влиянием Дачжи (Фань Бинбин), духа-лисицы, маскирующегося под любимую наложницу короля. Волшебник Цзян Зия (Джет Ли) и генерал Чжи являются давними противниками короля Чжоу Шана. Однажды Цзян Зия узнает, что давно утерянный Меч Света может помочь исправить сложившуюся ситуацию и победить короля-тирана. Генерал Чжи опасается использовать оружие из-за его непредсказуемого характера, но Цзян Зия считает, что конечный результат перевешивает риски и придумывает хитроумный план, как найти древний артефакт и укротить его силу. Для поиска меча он собирает команду из нескольких человек, каждый из которых от рождения обладает невероятными способностями. Однако, в процессе поиска Меча Света, команда сталкивается со своими собственными страхами, которые грозят поставить под угрозу выполнение самого задания.
Релиз группы:
Доп. информация: Перевод осуществляла команда фан-саб группы "Magic Owls"
Озвучивание: Ворон и Wenlana
Смотреть обязательно с форсированными субтитрами
Прежде чем качать видео и комментировать, скачайте сэмпл и послушайте!

Качество: 2160p WEB-DL[4K SeeHD] - Сэмпл
Формат видео: mkv
Видео: 3840x1600 (2,40:1), 24,000 fps, x264 ~6285 kbps avg, 0.043 bit/pixel
Аудио: 48 kHz, AC3 Dolby Digital, 2/0 (L,R) ch, ~192 kbps (Русский)
Аудио: 48 kHz, AC3 Dolby Digital, 2/0 (L,R) ch, ~192 kbps (Китайский)
Формат субтитров: [форсированный(надписи) / полные]softsub (ass)


Dialogue: 0,0:02:29.27,0:02:30.72,1,,0,0,63,,Что бы кто ни говорил, никому не позволено входить.
Dialogue: 0,0:02:30.87,0:02:31.80,1,,0,0,63,,Да, господин.
Dialogue: 0,0:03:04.63,0:03:06.12,1,,0,0,63,,Государь!
Dialogue: 0,0:03:35.43,0:03:37.68,1,,0,0,63,,Какой аппетит у моей наложницы!
Dialogue: 0,0:03:37.83,0:03:41.20,1,,0,0,63,,В последние дни ты очень оживленная.
Dialogue: 0,0:03:41.63,0:03:46.00,1,,0,0,63,,Это для того, чтобы лучше служить NВам, Государь, и Вашему Телу Дракона.
Dialogue: 0,0:04:20.19,0:04:22.20,1,,0,0,63,,Лэй, который час?
Dialogue: 0,0:04:22.59,0:04:23.76,1,,0,0,63,,Большой Кувшин только что прошел зенит.
Dialogue: 0,0:04:24.55,0:04:26.24,1,,0,0,63,,Мы в одной миле от Чжаогэ.
Dialogue: 0,0:04:26.59,0:04:28.92,1,,0,0,63,,Запомни, у нас только одно задание.
Dialogue: 0,0:04:29.27,0:04:31.60,1,,0,0,63,,Спасти Великого Старейшину из NПлемени Невидимых до рассвета.
Dialogue: 0,0:04:32.07,0:04:35.96,1,,0,0,63,,На протяжение нескольких лет Император Чжоу уничтожил множество племен Адептов.
Dialogue: 0,0:04:36.27,0:04:38.12,1,,0,0,63,,Говорят, что его очаровала Дай Цзи.
Dialogue: 0,0:04:39.07,0:04:41.16,1,,0,0,63,,Он всего лишь кукла в руках этой Девятихвостой Лисицы.
Dialogue: 0,0:04:42.59,0:04:44.36,1,,0,0,63,,Капитан, почему бы нам не воспользоваться этой возможностью,
Dialogue: 0,0:04:44.51,0:04:45.92,1,,0,0,63,,чтобы убить эту злую Лисицу?
Dialogue: 0,0:04:46.07,0:04:47.44,1,,0,0,63,,Только Мастер Цзян способен
Dialogue: 0,0:04:47.59,0:04:49.44,1,,0,0,63,,избавиться от этой древней Лисы-Демоницы.
Dialogue: 0,0:04:49.75,0:04:51.00,1,,0,0,63,,Сейчас для нас самое главное –
Dialogue: 0,0:04:51.15,0:04:53.52,1,,0,0,63,,Это отыскать Великого СтарейшинуN среди Племени Невидимых
Dialogue: 0,0:04:53.79,0:04:54.84,1,,0,0,63,,и в безопасности сопроводить его в Сици.
Dialogue: 0,0:04:55.19,0:04:56.56,1,,0,0,63,,Раз мы уже пересекли границы Чжаогэ,
Dialogue: 0,0:04:56.71,0:04:58.16,1,,0,0,63,,я уже чувствую запах крови,
Dialogue: 0,0:04:58.31,0:05:00.52,1,,0,0,63,,и он становится все сильнее.
Dialogue: 0,0:05:00.91,0:05:03.92,1,,0,0,63,,Я чувствую, что он исходит от Лисы!
Dialogue: 0,0:05:04.91,0:05:05.92,1,,0,0,63,,Лэй,
Dialogue: 0,0:05:06.23,0:05:08.40,1,,0,0,63,,когда мы будем там, что бы ни происходило,
Dialogue: 0,0:05:08.55,0:05:10.72,1,,0,0,63,,ты не должен использовать силу Адепта!
Dialogue: 0,0:05:11.31,0:05:13.60,1,,0,0,63,,Чары Дай Цзи непостижимы.

Формат : Matroska
Версия формата : Version 4 / Version 2
Размер файла : 5,07 Гбайт
Продолжительность : 1 ч. 48 м.
Общий поток : 6671 Кбит/сек
Дата кодирования : UTC 2016-10-28 11:17:11
Программа кодирования : mkvmerge v8.2.0 ('World of Adventure') 32bit
Библиотека кодирования : libebml v1.3.1 + libmatroska v1.4.2
Attachments : 9910.ttf
Видео
Идентификатор : 1
Формат : AVC
Формат/Информация : Advanced Video Codec
Профиль формата : High@L5.1
Параметр CABAC формата : Да
Параметр ReFrames формата : 3 кадра
Идентификатор кодека : V_MPEG4/ISO/AVC
Продолжительность : 1 ч. 48 м.
Битрейт : 6285 Кбит/сек
Ширина : 3840 пикселей
Высота : 1600 пикселей
Соотношение сторон : 2,40:1
Режим частоты кадров : Постоянный
Частота кадров : 24,000 кадра/сек
Цветовое пространство : YUV
Субдискретизация насыщенности : 4:2:0
Битовая глубина : 8 бит
Тип развёртки : Прогрессивная
Бит/(Пиксели*Кадры) : 0.043
Размер потока : 4,78 Гбайт (94%)
Библиотека кодирования : qiyi.com vtc-test
Default : Да
Forced : Нет
Цветовой диапазон : Limited
Основные цвета : BT.709
Характеристики трансфера : BT.709
Коэффициенты матрицы : BT.709
Аудио #1
Идентификатор : 2
Формат : AC-3
Формат/Информация : Audio Coding 3
Расширение режима : CM (complete main)
Параметр Endianness формата : Big
Идентификатор кодека : A_AC3
Продолжительность : 1 ч. 48 м.
Вид битрейта : Постоянный
Битрейт : 192 Кбит/сек
Каналы : 2 канала
Расположение каналов : Front: L R
Частота : 48,0 КГц
Частота кадров : 31,250 кадров/сек (1536 spf)
Метод сжатия : С потерями
Размер потока : 150 Мбайт (3%)
Заголовок : Ворон и Wenlana
Язык : Russian
Default : Да
Forced : Нет
Аудио #2
Идентификатор : 3
Формат : AC-3
Формат/Информация : Audio Coding 3
Расширение режима : CM (complete main)
Параметр Endianness формата : Big
Идентификатор кодека : A_AC3
Продолжительность : 1 ч. 48 м.
Вид битрейта : Постоянный
Битрейт : 192 Кбит/сек
Каналы : 2 канала
Расположение каналов : Front: L R
Частота : 48,0 КГц
Частота кадров : 31,250 кадров/сек (1536 spf)
Метод сжатия : С потерями
Размер потока : 150 Мбайт (3%)
Заголовок : Original
Язык : Chinese
Default : Нет
Forced : Нет
Текст #1
Идентификатор : 4
Формат : ASS
Идентификатор кодека : S_TEXT/ASS
Идентификатор кодека/Информация : Advanced Sub Station Alpha
Продолжительность : 2 м. 16 с.
Битрейт : 14 бит/сек
Count of elements : 3
Метод сжатия : Без потерь
Размер потока : 244 байт (0%)
Заголовок : форсированный(надписи)
Язык : Russian
Default : Да
Forced : Да
Текст #2
Идентификатор : 5
Формат : ASS
Идентификатор кодека : S_TEXT/ASS
Идентификатор кодека/Информация : Advanced Sub Station Alpha
Продолжительность : 1 ч. 37 м.
Битрейт : 95 бит/сек
Count of elements : 1088
Метод сжатия : Без потерь
Размер потока : 68,1 Кбайт (0%)
Заголовок : Перевод: фан-саб группы "Magic Owls"
Язык : Russian
Default : Нет
Forced : Нет



   Похожие торренты   Торрент   Размер 
В этой теме нет новых непрочитанных сообщений. Лига Богов / League of Gods (2016) WEBDLRip-AVC от Batafurai Team и SOUND-GROUP | L2

56 | 2

1.47 ГБ

В этой теме нет новых непрочитанных сообщений. Лига Богов / League of Gods (2016) WEB-DLRip | L2

10 | 0

1.46 ГБ

В этой теме нет новых непрочитанных сообщений. Братья / Brothers (2016) WEBDLRip-AVC от Batafurai Team и SOUND-GROUP | L2

206 | 78

1.47 ГБ

В этой теме нет новых непрочитанных сообщений. Телохранитель / The bodyguard (2016) HDRip-AVC от Batafurai Team и SOUND-GROUP | L2

152 | 2

1.47 ГБ

В этой теме нет новых непрочитанных сообщений. Выпускник / Старшеклассник / Senior (2016) DVDRip-AVC от Batafurai Team и SOUND-GROUP | L2

118 | 3

2.05 ГБ

В этой теме нет новых непрочитанных сообщений. Л.О.Р.Д. Легенда о разорении династий / L.O.R.D: Legend of Ravaging Dynasties (2016) TC-AVC от Batafurai Team и SOUND-GROUP | L2

8 | 0

1.47 ГБ

В этой теме нет новых непрочитанных сообщений. Если бы улитка полюбила / When A Snail Loves [01-21 из 21] (2016) WEB-Rip 1080p от Batafurai Team и SOUND-GROUP | L2

0 | 0

14.78 ГБ




Вы не можете начинать темы
Вы не можете отвечать на сообщения
Вы не можете редактировать свои сообщения
Вы не можете удалять свои сообщения
Вы не можете добавлять вложения

Перейти:  
Для Мосгорсуда, Роскомнадзора и рекламодателей: mosgorsud-torrent[собачка]yandex.ru
 Вход
ppkBB3cker v.2 © 2008-2014 @ PPK
[ Time : 0.052s | 15 Queries | GZIP : Off ]
CGP output time : 0.030s | 5 Queries | GZIP : Off

Торрент трекер RUTOR.IN, Не можете зайти на rutor.org? Какой новый адрес рутор? Какое зеркало рутор? Не работает rutor.org и зеркала? Тогда наш торрент специально для вас. Rutor.in неофициальное зеркало rutor. В случае если у Вас заблокирован rutor или вдруг Вы не можете на него зайти, то Вы без труда сможете скачать бесплатно и без рекламы последние новинки кино, игр, сериалов и прочего у нас, на Rutor.in. Не нужно использовать прокси, чтобы зайти на рутор, достаточно воспользоваться нашим ресурсом. Все новые фильмы, игры, сериалы, книги и музыка за 2013 и 2014 годы через торрент бесплатно. Скачивайте фильмы в хорошем качестве, игры для пк, xbox, playstation без регистрации. У нас вы найдете новые Зарубежные сериалы и Русские сериалы 2013, 2014, 2015 годов. Оставайтесь с нами, качайте любимые фильмы, игры, сериалы, книги и музыку.