img image001 image001 image001 image001 image001 image001 image001 image001 image001 image001 image001 image001 image001 image001 image001 image001

Planets Sun Sun Sun
Статистика раздачи
Автор: PriZraK | Размер: 8.75 ГБ | Добавлен: 06 ноя 2016
Раздают: 16    Качают: 1
Скачать торрент
Скачать торрент
Описание торрента

СообщениеДобавлено: 06 ноя 2016 


Информация о фильме
Название: Охотники за головами
Оригинальное название: Bounty Hunters
Год выхода: 2016
Жанр: Боевик, мелодрама, комедия
Режиссер: Вей-Хао Ченг
В ролях: Ли Мин-хо, Уоллес Чун, Тан Янь, Jones Jeremy, Карена Нг, Луис Фань
О фильме:
Сюжет кинокартины Охотники за головами рассказывает историю об пяти молодых, но профессиональных охотниках. Ранее они не были знакомы, да и вообще в подобный образ жизни каждый попал по случайности. Так сложилось судьбой, что теперь им предстоит отлавливать самых опасных преступников. Но самое важное, делать это тихо и профессионально. Никто не должен знать, что они были на месте преступления. Все они с разных мест: Таиланда, Кореи, Гонконга и Китая. Теперь же охотникам предстоит научиться работать в команде, несмотря на то, что ранее их жизнь была предоставлена самым себе.Главные герои фильма Bounty Hunters понимают, что обратного пути нет, отныне они одна команда и готовы бороться за чистоту и порядок во всем мире. Многие преступники знают о существовании специального подразделения, поэтому в последние время стали вести себя более осторожно, что значительно усложняет жизнь молодым людям. За каждого пойманного преступника им платят хорошие деньги, это некого рода бизнес, ценой которого в один момент могут стать их жизни. Смотреть онлайн фильм и вы узнаете, чем на самом деле завершится эта история.

Страна: Китай
Студия: Harmonious Entertainment Shanghai, Pegasus Motion Pictures, Starhaus Entertainment
Продолжительность: 01:45:14
Перевод: Любительский многоголосый закадровый, Любительский двухголосый закадровый
Файл
Кодек: h.264
Качество: BDRip 1080p
Видео: MPEG-4 AVC, 10240 Кбит/с, 1920x800, 24.000 кадр/с
Звук:
Русский (AC3, 2 ch, 192 Кбит/с) / Любительский многоголосый (STEPonee)
Русский (AC3, 2 ch, 192 Кбит/с) / Любительский двухголосый (SoftBox)
Китайский (Cantonese) (AC3, 6 ch, 640 Кбит/с)
Китайский (Mandarin) (AC3, 6 ch, 640 Кбит/с)
Субтитры: Русские (форсированные, для озвучки SoftBox), английские
Семпл
Автор релиза - Silverok, За BD-Remux спасибо vedigo
Субтитры: S_TEXT/UTF8 (SRT) - русские (форсированные, для озвучки SoftBox), английские
SoftBox - роли озвучивали: Akonya, Prince Lemon
STEPonee - роли озвучивали: Марат Михайлов, Олег Кондрашов, Артём Кротов, Ирина Пометнёва, Юлия Шишкина
Перевод: ФСГ 'Comeback' - звуковик: Юрий Балякин, Ирина Пометнёва; тайминг: Ирина Пометнёва
Сохранены оригинальные главы как на Blu-ray.

---[Information] [05.11.2016 5:32:19] x264 [info]: frame I:1534 Avg QP:16.32 size:214710
---[Information] [05.11.2016 5:32:19] x264 [info]: frame P:38828 Avg QP:18.67 size: 94855
---[Information] [05.11.2016 5:32:19] x264 [info]: frame B:111179 Avg QP:20.42 size: 36549
General
Unique ID : 209910686011784154225603728009832920787 (0x9DEB53DC866DDFE08AE11A09B22F76D3)
Complete name : D:uTorrentOhotniki.za.golovami.2016.BDRip.1080p.MediaClub.mkv
Format : Matroska
Format version : Version 4 / Version 2
File size : 8.75 GiB
Duration : 1 h 45 min
Overall bit rate : 11.9 Mb/s
Encoded date : UTC 2016-11-05 09:53:26
Writing application : mkvmerge v9.4.2 ('So High') 64bit
Writing library : libebml v1.3.4 + libmatroska v1.4.5
Video
ID : 1
Format : AVC
Format/Info : Advanced Video Codec
Format profile : High@L4.1
Format settings, CABAC : Yes
Format settings, ReFrames : 5 frames
Codec ID : V_MPEG4/ISO/AVC
Duration : 1 h 45 min
Bit rate : 10.2 Mb/s
Width : 1 920 pixels
Height : 800 pixels
Display aspect ratio : 2.40:1
Frame rate mode : Constant
Frame rate : 24.000 FPS
Color space : YUV
Chroma subsampling : 4:2:0
Bit depth : 8 bits
Scan type : Progressive
Bits/(Pixel*Frame) : 0.278
Stream size : 7.35 GiB (84%)
Title : BDRip by Silverok
Writing library : x264 core 148 r2638 7599210
Encoding settings : cabac=1 / ref=5 / deblock=1:-3:-3 / analyse=0x3:0x113 / me=umh / subme=10 / psy=1 / psy_rd=1.00:0.10 / mixed_ref=1 / me_range=32 / chroma_me=1 / trellis=2 / 8x8dct=1 / cqm=0 / deadzone=21,11 / fast_pskip=0 / chroma_qp_offset=-3 / threads=12 / lookahead_threads=2 / sliced_threads=0 / nr=0 / decimate=0 / interlaced=0 / bluray_compat=0 / constrained_intra=0 / bframes=8 / b_pyramid=2 / b_adapt=2 / b_bias=0 / direct=3 / weightb=1 / open_gop=0 / weightp=2 / keyint=240 / keyint_min=24 / scenecut=40 / intra_refresh=0 / rc_lookahead=40 / rc=2pass / mbtree=0 / bitrate=10240 / ratetol=1.0 / qcomp=0.60 / qpmin=0 / qpmax=69 / qpstep=4 / cplxblur=20.0 / qblur=0.5 / vbv_maxrate=62500 / vbv_bufsize=78125 / nal_hrd=none / filler=0 / ip_ratio=1.40 / pb_ratio=1.30 / aq=1:1.00
Default : Yes
Forced : No
Audio #1
ID : 2
Format : AC-3
Format/Info : Audio Coding 3
Mode extension : CM (complete main)
Format settings, Endianness : Big
Codec ID : A_AC3
Duration : 1 h 45 min
Bit rate mode : Constant
Bit rate : 192 kb/s
Channel(s) : 2 channels
Channel positions : Front: L R
Sampling rate : 48.0 kHz
Frame rate : 31.250 FPS (1536 spf)
Compression mode : Lossy
Stream size : 145 MiB (2%)
Title : Любительский многоголосый закадровый (STEPonee)
Language : Russian
Default : Yes
Forced : No
Audio #2
ID : 3
Format : AC-3
Format/Info : Audio Coding 3
Mode extension : CM (complete main)
Format settings, Endianness : Big
Codec ID : A_AC3
Duration : 1 h 45 min
Bit rate mode : Constant
Bit rate : 192 kb/s
Channel(s) : 2 channels
Channel positions : Front: L R
Sampling rate : 48.0 kHz
Frame rate : 31.250 FPS (1536 spf)
Compression mode : Lossy
Stream size : 145 MiB (2%)
Title : Любительский двухголосый закадровый (SoftBox)
Language : Russian
Default : No
Forced : No
Audio #3
ID : 4
Format : AC-3
Format/Info : Audio Coding 3
Mode extension : CM (complete main)
Format settings, Endianness : Big
Codec ID : A_AC3
Duration : 1 h 45 min
Bit rate mode : Constant
Bit rate : 640 kb/s
Channel(s) : 6 channels
Channel positions : Front: L C R, Side: L R, LFE
Sampling rate : 48.0 kHz
Frame rate : 31.250 FPS (1536 spf)
Compression mode : Lossy
Stream size : 482 MiB (5%)
Title : Cantonese
Language : Chinese
Default : No
Forced : No
Audio #4
ID : 5
Format : AC-3
Format/Info : Audio Coding 3
Mode extension : CM (complete main)
Format settings, Endianness : Big
Codec ID : A_AC3
Duration : 1 h 45 min
Bit rate mode : Constant
Bit rate : 640 kb/s
Channel(s) : 6 channels
Channel positions : Front: L C R, Side: L R, LFE
Sampling rate : 48.0 kHz
Frame rate : 31.250 FPS (1536 spf)
Compression mode : Lossy
Stream size : 482 MiB (5%)
Title : Mandarin
Language : Chinese
Default : No
Forced : No
Text #1
ID : 6
Format : UTF-8
Codec ID : S_TEXT/UTF8
Codec ID/Info : UTF-8 Plain Text
Language : Russian
Default : Yes
Forced : No
Text #2
ID : 7
Format : UTF-8
Codec ID : S_TEXT/UTF8
Codec ID/Info : UTF-8 Plain Text
Language : English
Default : No
Forced : No
Menu
00:00:00.000 : en:00:00:00.000
00:04:30.750 : en:00:04:30.750
00:08:05.958 : en:00:08:05.958
00:17:09.083 : en:00:17:09.083
00:22:08.625 : en:00:22:08.625
00:26:25.250 : en:00:26:25.250
00:30:49.667 : en:00:30:49.667
00:34:34.667 : en:00:34:34.667
00:41:04.208 : en:00:41:04.208
00:45:10.833 : en:00:45:10.833
00:49:47.917 : en:00:49:47.917
00:57:00.792 : en:00:57:00.792
01:01:53.542 : en:01:01:53.542
01:06:17.542 : en:01:06:17.542
01:10:50.542 : en:01:10:50.542
01:14:25.000 : en:01:14:25.000
01:18:29.458 : en:01:18:29.458
01:24:22.875 : en:01:24:22.875
01:29:15.417 : en:01:29:15.417
01:36:29.292 : en:01:36:29.292


Релиз от: | Silverok



   Похожие торренты   Торрент   Размер 
В этой теме нет новых непрочитанных сообщений. Охотники за головами / Bounty Hunters (2016) BDRemux 1080p | L, L2

0 | 2

18.52 ГБ

В этой теме нет новых непрочитанных сообщений. Охотники за головами / Bounty Hunters (2016) BDRip от ExKinoRay | L

4 | 0

1.45 ГБ

В этой теме нет новых непрочитанных сообщений. Охотники за головами / Bounty Hunters (2016) WEB-DLRip | L2

281 | 15

1.45 ГБ

В этой теме нет новых непрочитанных сообщений. Охотники за головами / Bounty Hunters (2016) WEB-DL 720p | L2

418 | 31

2.8 ГБ

В этой теме нет новых непрочитанных сообщений. Охотники за головами 2 / Bounty hunters 2: Hardball (1997) BDRemux 1080p от Sem-te | A

10 | 4

18.13 ГБ

В этой теме нет новых непрочитанных сообщений. Охотники за головами / Bounty Hunters (2016) HDRip от AleksSin | L2

3 | 0

747.43 МБ

В этой теме нет новых непрочитанных сообщений. Охотники за головами 2 / Bounty hunters 2: Hardball (1997) BDRip от Sem-te | A

8 | 0

1.46 ГБ




Вы не можете начинать темы
Вы не можете отвечать на сообщения
Вы не можете редактировать свои сообщения
Вы не можете удалять свои сообщения
Вы не можете добавлять вложения

Перейти:  
 Вход
ppkBB3cker v.2 © 2008-2014 @ PPK
[ Time : 0.045s | 18 Queries | GZIP : Off ]

cron