img image001 image001 image001 image001 image001 image001 image001 image001 image001 image001 image001 image001 image001 image001 image001

Planets Sun Sun Sun
Статистика раздачи
Автор: PriZraK | Размер: 9.86 ГБ | Добавлен: 15 ноя 2016
Раздают: 36    Качают: 1
Скачать торрент
Скачать торрент
Описание торрента

СообщениеДобавлено: 15 ноя 2016 

Название: Ботинки мертвеца
Оригинальное название: Dead Man's Shoes
Год выхода: 2004
Страна: Великобритания
Студия: Warp Films, Big Arty Productions, EM Media
Продолжительность: 01:26:21
Жанр: триллер, драма, криминал
Режиссер: Шэйн Медоуз
В ролях: Пэдди Консидайн, Гари Стретч, Тоби Кеббелл, Джо Хартли, Симус О`Нейлл, Стуарт Щолфенден, Паул Садот, Паул Хурстфиелд, Эмили Эстон, Джордж Ньютон, ...
Перевод:
- Профессиональный (двухголосый, закадровый) R5
- Любительский (двухголосый, закадровый) ?
- Авторский (одноголосый, закадровый) Чадов Михаил
О фильме: Ричард, молодой человек из маленького городка Дербишир, 8 лет служил в армии. В это время его умственно отсталый брат Антоний попадает под влияние торговцев наркотиками. Ричард возвращается домой, чтобы воссоединиться с братом и разобраться с обидчиками…

Кодек: x264
Качество: BDRip 1080p
Видео: 1908x1080 , 14000 kbps, 25 fps
Аудио #1: AC-3, 6 ch, 448 kbps (Rus) - AVO Чадов Михаил
Аудио #2: AC-3, 2 ch, 256 kbps (Rus) - AVO Чадов Михаил
Аудио #3: AC-3, 6 ch, 448 kbps (Rus) - DVO R5
Аудио #4: AC-3, 2 ch, 192 kbps (Rus) - DVOL
Аудио #5: AC-3, 2 ch, 256 kbps (Eng)
Аудио #6: DTS, 6 ch, 768 kbps (Eng)
Субтитры: Английские
За исходник спасибо - Diablo
Перевод и озвучка Михаила Чадова доступны благодаря Переулку Переводмана и - DarveSh, Wa1ker, RW, 7654, MaXim, 1woody1, iVov4ik, rmvk15, dikii, Shrooms, Юрий Деточкин
Работа со звуком - Переводман
Оригинальный DTS 5.1 слабенький. Двухканальный AC-3 лучше. Отсюда и две дороги Чадова.

x264 [info]: frame I:684 Avg QP:20.28 size:186367
x264 [info]: frame P:25696 Avg QP:22.72 size:111707
x264 [info]: frame B:103020 Avg QP:25.02 size: 58774
x264 [info]: consecutive B-frames: 1.7% 1.4% 3.6% 15.1% 18.1% 40.6% 12.6% 3.1% 1.9% 0.7% 0.3% 0.2% 0.6%
Общее
Уникальный идентификатор : 212076527869348691178062794862301020690 (0x9F8C741C04AF1873811C94D2A6940212)
Полное имя : Ботинки мертвеца (Dead Man's Shoes) 2004 BDRip 1080p.mkv
Формат : Matroska
Версия формата : Version 2
Размер файла : 9,86 Гбайт
Продолжительность : 1 ч. 26 м.
Общий поток : 16,4 Мбит/сек
Дата кодирования : UTC 2016-11-15 08:57:05
Программа кодирования : mkvmerge v4.0.0 ('The Stars were mine') сборка от Jun 6 2010 16:18:42
Библиотека кодирования : libebml v1.0.0 + libmatroska v1.0.0
Видео
Идентификатор : 1
Формат : AVC
Формат/Информация : Advanced Video Codec
Профиль формата : High@L4.1
Параметр CABAC формата : Да
Параметр ReFrames формата : 4 кадра
Идентификатор кодека : V_MPEG4/ISO/AVC
Продолжительность : 1 ч. 26 м.
Битрейт : 14,0 Мбит/сек
Ширина : 1908 пикселей
Высота : 1080 пикселей
Соотношение сторон : 16:9
Режим частоты кадров : Постоянный
Частота кадров : 25,000 кадров/сек
Цветовое пространство : YUV
Субдискретизация насыщенности : 4:2:0
Битовая глубина : 8 бит
Тип развёртки : Прогрессивная
Бит/(Пиксели*Кадры) : 0.272
Размер потока : 8,24 Гбайт (84%)
Библиотека кодирования : x264 core 146 r2538 121396c
Настройки программы : cabac=1 / ref=4 / deblock=1:-3:-3 / analyse=0x3:0x133 / me=umh / subme=11 / psy=1 / psy_rd=1.00:0.00 / mixed_ref=1 / me_range=32 / chroma_me=1 / trellis=2 / 8x8dct=1 / cqm=0 / deadzone=21,11 / fast_pskip=0 / chroma_qp_offset=-2 / threads=12 / lookahead_threads=2 / sliced_threads=0 / nr=0 / decimate=0 / interlaced=0 / bluray_compat=0 / constrained_intra=0 / bframes=12 / b_pyramid=2 / b_adapt=2 / b_bias=0 / direct=3 / weightb=1 / open_gop=0 / weightp=2 / keyint=250 / keyint_min=25 / scenecut=40 / intra_refresh=0 / rc=2pass / mbtree=0 / bitrate=14000 / ratetol=1.0 / qcomp=0.60 / qpmin=0 / qpmax=69 / qpstep=4 / cplxblur=20.0 / qblur=0.5 / ip_ratio=1.40 / pb_ratio=1.30 / aq=1:0.80
Язык : English
Default : Нет
Forced : Нет
Аудио #1
Идентификатор : 2
Формат : AC-3
Формат/Информация : Audio Coding 3
Расширение режима : CM (complete main)
Параметр Endianness формата : Big
Идентификатор кодека : A_AC3
Продолжительность : 1 ч. 26 м.
Вид битрейта : Постоянный
Битрейт : 448 Кбит/сек
Каналы : 6 каналов
Расположение каналов : Front: L C R, Side: L R, LFE
Частота : 48,0 КГц
Частота кадров : 31,250 кадров/сек (1536 spf)
Метод сжатия : С потерями
Размер потока : 277 Мбайт (3%)
Заголовок : AVO Чадов Михаил 5.1
Язык : Russian
Default : Нет
Forced : Нет
Аудио #2
Идентификатор : 3
Формат : AC-3
Формат/Информация : Audio Coding 3
Расширение режима : CM (complete main)
Параметр Endianness формата : Big
Идентификатор кодека : A_AC3
Продолжительность : 1 ч. 26 м.
Вид битрейта : Постоянный
Битрейт : 256 Кбит/сек
Каналы : 2 канала
Расположение каналов : Front: L R
Частота : 48,0 КГц
Частота кадров : 31,250 кадров/сек (1536 spf)
Метод сжатия : С потерями
Размер потока : 158 Мбайт (2%)
Заголовок : AVO Чадов Михаил 2.0
Язык : Russian
Default : Нет
Forced : Нет
Аудио #3
Идентификатор : 4
Формат : AC-3
Формат/Информация : Audio Coding 3
Расширение режима : CM (complete main)
Параметр Endianness формата : Big
Идентификатор кодека : A_AC3
Продолжительность : 1 ч. 26 м.
Вид битрейта : Постоянный
Битрейт : 448 Кбит/сек
Каналы : 6 каналов
Расположение каналов : Front: L C R, Side: L R, LFE
Частота : 48,0 КГц
Частота кадров : 31,250 кадров/сек (1536 spf)
Метод сжатия : С потерями
Размер потока : 277 Мбайт (3%)
Заголовок : DVO R5
Язык : Russian
Default : Нет
Forced : Нет
Аудио #4
Идентификатор : 5
Формат : AC-3
Формат/Информация : Audio Coding 3
Расширение режима : CM (complete main)
Параметр Endianness формата : Big
Идентификатор кодека : A_AC3
Продолжительность : 1 ч. 26 м.
Вид битрейта : Постоянный
Битрейт : 192 Кбит/сек
Каналы : 2 канала
Расположение каналов : Front: L R
Частота : 48,0 КГц
Частота кадров : 31,250 кадров/сек (1536 spf)
Метод сжатия : С потерями
Размер потока : 119 Мбайт (1%)
Заголовок : DVOL
Язык : Russian
Default : Нет
Forced : Нет
Аудио #5
Идентификатор : 6
Формат : AC-3
Формат/Информация : Audio Coding 3
Расширение режима : CM (complete main)
Параметр Endianness формата : Big
Идентификатор кодека : A_AC3
Продолжительность : 1 ч. 26 м.
Вид битрейта : Постоянный
Битрейт : 256 Кбит/сек
Каналы : 2 канала
Расположение каналов : Front: L R
Частота : 48,0 КГц
Частота кадров : 31,250 кадров/сек (1536 spf)
Метод сжатия : С потерями
Размер потока : 158 Мбайт (2%)
Заголовок : 2.0
Язык : English
Default : Нет
Forced : Нет
Аудио #6
Идентификатор : 7
Формат : DTS
Формат/Информация : Digital Theater Systems
Режим : 16
Параметр Endianness формата : Big
Идентификатор кодека : A_DTS
Продолжительность : 1 ч. 26 м.
Вид битрейта : Постоянный
Битрейт : 768 Кбит/сек
Каналы : 6 каналов
Расположение каналов : Front: L C R, Side: L R, LFE
Частота : 48,0 КГц
Частота кадров : 93,750 кадра/сек (512 spf)
Битовая глубина : 16 бит
Метод сжатия : С потерями
Размер потока : 474 Мбайт (5%)
Заголовок : 5.1
Язык : English
Default : Нет
Forced : Нет
Текст
Идентификатор : 8
Формат : UTF-8
Идентификатор кодека : S_TEXT/UTF8
Идентификатор кодека/Информация : UTF-8 Plain Text
Язык : English
Default : Нет
Forced : Нет





   Похожие торренты   Торрент   Размер 
В этой теме нет новых непрочитанных сообщений. Ботинки мертвеца / Месть мертвеца / Dead Man's Shoes (2004) HDRip

18 | 2

1.46 ГБ

В этой теме нет новых непрочитанных сообщений. Ботинки мертвеца / Dead Man's Shoes (2004) BDRip

3 | 6

4.64 ГБ

В этой теме нет новых непрочитанных сообщений. Ботинки мертвеца / Dead Man's Shoes (2004) DVDRip

2 | 2

694.96 МБ

В этой теме нет новых непрочитанных сообщений. Пожалуйста, снимите ваши ботинки / Please, remove your shoes (2010) SATRip-AVC

0 | 1

538.33 МБ

В этой теме нет новых непрочитанных сообщений. Пираты Карибского моря: Сундук мертвеца / Pirates of the Caribbean: Dead Man's Chest (2006) BDRip 1080p

912 | 47

4.37 ГБ

В этой теме нет новых непрочитанных сообщений. Пираты Карибского моря 2 Сундук мертвеца / Pirates of the Caribbean Dead Man's Chest (2006) BDRip от RP4 CHG

128 | 4

1.09 ГБ

В этой теме нет новых непрочитанных сообщений. Пираты Карибского моря 2: Сундук мертвеца / Pirates of the Caribbean: Dead Man's Chest (2006) BDRip от HQ-ViDEO

12 | 6

2.59 ГБ




Вы не можете начинать темы
Вы не можете отвечать на сообщения
Вы не можете редактировать свои сообщения
Вы не можете удалять свои сообщения
Вы не можете добавлять вложения

Перейти:  
Для Мосгорсуда, Роскомнадзора и рекламодателей: mosgorsud-torrent[собачка]yandex.ru
 Вход
ppkBB3cker v.2 © 2008-2014 @ PPK
[ Time : 0.061s | 19 Queries | GZIP : Off ]

cron