img image001 image001 image001 image001 image001 image001 image001 image001 image001 image001 image001 image001 image001 image001 image001

Planets Sun Sun Sun
Статистика раздачи
Автор: PriZraK | Размер: 2.05 ГБ | Добавлен: 17 ноя 2016
Раздают: 35    Качают: 10
Скачать торрент
Скачать торрент
Описание торрента

СообщениеДобавлено: 17 ноя 2016 


Год выпуска: 2016
Страна: США / 20th Century Fox Animation, Blue Sky Studios
Жанр: мультфильм, комедия, приключения, семейный
Продолжительность: 01:34:32
Перевод: Профессиональный (дублированный)
Субтитры: русские, украинские, английские
Оригинальная аудиодорожка: английский
Режиссер: Майк Тёрмайер / Mike Thurmeier, Гален Т. Чу / Galen T. Chu
В ролях: Рэй Романо, Джон Легуизамо, Дэнис Лири, Куин Латифа, Шонн Уильям Скотт, Саймон Пегг, Дженнифер Лопез, Нил Тайсон, Джесси Тайлер Фергюсон, Джесси Джей.
Описание: Отчаянная погоня за неуловимым желудем катапультирует Скрата прямо в космос, где он случайно запускает целую серию космических событий. Именно они изменят весь мир Ледникового периода и станут реальной угрозой для него. Чтобы спастись, Сид, Мэнни, Диего и остальные звери должны покинуть свои дома, отправиться в забавное и захватывающее приключение в экзотические новые земли и встретиться со множеством красочных новых персонажей.
Релиз от:
Автор рипа: Seven
Качество видео: BDRip (источник: Blu-ray Remux / 1080p)
Формат видео: AVI | Sample
Видео: 720x304 (2.37:1), 23.976 fps, XviD build 73 ~1750 kbps avg, 0.33 bit/pixel
Аудио 1: 48 kHz, AC3 Dolby Digital, 3/2 (L,C,R,l,r) + LFE ch, ~448.00 kbps avg | Rus Дубляж BD EUR
Аудио 2: 48 kHz, AC3 Dolby Digital, 3/2 (L,C,R,l,r) + LFE ch, ~448.00 kbps avg | Ukr Дубляж BD EUR отдельно
Аудио 3: 48 kHz, AC3 Dolby Digital, 3/2 (L,C,R,l,r) + LFE ch, ~448.00 kbps avg | Eng Original отдельно
Субтитры: русские (форсированные, полные), украинские (форсированные, полные), английские (полные) отдельно


Формат : AVI
Формат/Информация : Audio Video Interleave
Размер файла : 1,46 Гбайт
Продолжительность : 1 ч. 34 м.
Общий поток : 2208 Кбит/сек
Программа кодирования : VirtualDubMod 1.5.10.2 (build 2540/release)
Библиотека кодирования : VirtualDubMod build 2540/release
Видео
Идентификатор : 0
Формат : MPEG-4 Visual
Профиль формата : Advanced Simple@L5
Параметр BVOP формата : 1
Параметр QPel формата : Нет
Параметр GMC формата : Без точки перехода
Параметр матрицы формата : Выборочная
Идентификатор кодека : XVID
Идентификатор кодека/Подсказка : XviD
Продолжительность : 1 ч. 34 м.
Битрейт : 1750 Кбит/сек
Ширина : 720 пикселей
Высота : 304 пикселя
Соотношение сторон : 2,35:1
Частота кадров : 23,976 (23976/1000) кадра/сек
Цветовое пространство : YUV
Субдискретизация насыщенности : 4:2:0
Битовая глубина : 8 бит
Тип развёртки : Прогрессивная
Метод сжатия : С потерями
Бит/(Пиксели*Кадры) : 0.334
Размер потока : 1,16 Гбайт (79%)
Библиотека кодирования : XviD 73
Аудио
Идентификатор : 1
Формат : AC-3
Формат/Информация : Audio Coding 3
Расширение режима : CM (complete main)
Параметр Endianness формата : Big
Идентификатор кодека : 2000
Продолжительность : 1 ч. 34 м.
Вид битрейта : Постоянный
Битрейт : 448 Кбит/сек
Каналы : 6 каналов
Расположение каналов : Front: L C R, Side: L R, LFE
Частота : 48,0 КГц
Частота кадров : 31,250 кадров/сек (1536 spf)
Метод сжатия : С потерями
Размер потока : 303 Мбайт (20%)
Выравнивание : Разделение по промежуткам
Продолжительность промежутка : 42 мс. (1,00 видеокадр)
Время предзагрузки промежутка : 500 мс.



   Похожие торренты   Торрент   Размер 
В этой теме нет новых непрочитанных сообщений. Ледниковый период: Столкновение неизбежно / Ice Age: Collision Course (2016) BDRip-AVC от HELLYWOOD | Лицензия

14 | 9

1.46 ГБ

В этой теме нет новых непрочитанных сообщений. Ледниковый период: Столкновение неизбежно / Ice Age: Collision Course (2016) BDRip-AVC от HELLYWOOD | Лицензия

305 | 19

2.18 ГБ

В этой теме нет новых непрочитанных сообщений. Ледниковый период: Столкновение неизбежно / Ice Age: Collision Course (2016) BDRip 720p от HELLYWOOD | Лицензия

122 | 15

4.46 ГБ

В этой теме нет новых непрочитанных сообщений. Ледниковый период: Столкновение неизбежно / Ice Age: Collision Course (2016) BDRip от HQCLUB | Лицензия

173 | 7

1.45 ГБ

В этой теме нет новых непрочитанных сообщений. Ледниковый период: Столкновение неизбежно / Ice Age: Collision Course (2016) BDRip 720p | Лицензия

50 | 14

5.59 ГБ

В этой теме нет новых непрочитанных сообщений. Ледниковый период: Столкновение неизбежно / Ice Age: Collision Course (2016) BDRip от MegaPeer | Лицензия

243 | 11

1.46 ГБ

В этой теме нет новых непрочитанных сообщений. Ледниковый период: Столкновение неизбежно / Ice Age: Collision Course (2016) BDRip RG GeneralFilm | iTunes

309 | 3

1.41 ГБ




Вы не можете начинать темы
Вы не можете отвечать на сообщения
Вы не можете редактировать свои сообщения
Вы не можете удалять свои сообщения
Вы не можете добавлять вложения

Перейти:  
Для Мосгорсуда, Роскомнадзора и рекламодателей: mosgorsud-torrent[собачка]yandex.ru
 Вход
ppkBB3cker v.2 © 2008-2014 @ PPK
[ Time : 0.045s | 18 Queries | GZIP : Off ]

cron