img image001 image001 image001 image001 image001 image001 image001 image001 image001 image001 image001 image001 image001 image001 image001 image001

Planets Sun Sun Sun
Статистика раздачи
Автор: Снежана | Размер: 4.33 ГБ | Добавлен: 22 июл 2013
Раздают: 6    Качают: 5
Скачать торрент
Скачать торрент
Описание торрента

СообщениеДобавлено: 22 июл 2013 

#77

Информация о фильме
Название: Хроника
Оригинальное название: Chronicle
Год выхода: 2012
Жанр: фантастика, боевик, триллер, драма
Режиссер: Джошуа Транк
В ролях: Дэйн ДеХаан, Алекс Расселл, Майкл Б. Джордан, Майкл Келли, Эшли Хиншоу, Бо Петерсен, Анна Вуд, Руди Малкольм, Люк Тайлер, Кристал-Донна Робертс

О фильме:
Три школьных друга получают супер способности, после обнаружения упавшего метеорита. Скоро они попадут в водоворот событий, в котором откроются их темные стороны.


Страна: США, Великобритания
Продолжительность: 01:23:53
Перевод: Дублированный [Лицензия]

Файл
Кодек: H 264
Качество: BDRip 720p
Видео: 6504 kb/s, 1280x688
Звук: Russian/English: AC3, (6 ch), 448 kb/s
Субтитры: English
Примечание: Театральная версия

Семпл

General
Unique ID : 216392008509374264762984044737959716520 (0xA2CB95BB71DC2E6F99BA76AC0BD666A8)
Complete name : C:UsersСергейDownloadsОбычные фильмыхроника(обычная)Hronika.2012.BDRip.720p.mkv
Format : Matroska
Format version : Version 2
File size : 4.33 GiB
Duration : 1h 23mn
Overall bit rate : 7 395 Kbps
Encoded date : UTC 2012-05-16 06:28:56
Writing application : mkvmerge v5.5.0 ('Healer') built on Apr 6 2012 21:43:24
Writing library : libebml v1.2.3 + libmatroska v1.3.0

Video
ID : 1
Format : AVC
Format/Info : Advanced Video Codec
Format profile : High@L4.1
Format settings, CABAC : Yes
Format settings, ReFrames : 9 frames
Codec ID : V_MPEG4/ISO/AVC
Duration : 1h 23mn
Bit rate : 6 504 Kbps
Width : 1 280 pixels
Height : 688 pixels
Display aspect ratio : 1.860
Frame rate : 23.976 fps
Color space : YUV
Chroma subsampling : 4:2:0
Bit depth : 8 bits
Scan type : Progressive
Bits/(Pixel*Frame) : 0.308
Stream size : 3.72 GiB (86%)
Writing library : x264 core 120 r2164+656 2ff844c
Encoding settings : cabac=1 / ref=9 / deblock=1:-3:-3 / analyse=0x3:0x113 / me=umh / subme=11 / psy=1 / fade_compensate=0.00 / psy_rd=1.00:0.00 / mixed_ref=1 / me_range=32 / chroma_me=1 / trellis=2 / 8x8dct=1 / cqm=0 / deadzone=21,11 / fast_pskip=1 / chroma_qp_offset=-2 / threads=6 / sliced_threads=0 / nr=0 / decimate=1 / interlaced=0 / bluray_compat=0 / constrained_intra=0 / fgo=0 / bframes=7 / b_pyramid=2 / b_adapt=2 / b_bias=0 / direct=3 / weightb=1 / open_gop=0 / weightp=2 / keyint=250 / keyint_min=23 / scenecut=40 / intra_refresh=0 / rc=2pass / mbtree=0 / bitrate=6504 / ratetol=1.0 / qcomp=0.60 / qpmin=0 / qpmax=69 / qpstep=4 / cplxblur=20.0 / qblur=0.5 / ip_ratio=1.40 / pb_ratio=1.30 / aq=1:1.00
Language : English
Default : Yes
Forced : No

Audio #1
ID : 2
Format : AC-3
Format/Info : Audio Coding 3
Mode extension : CM (complete main)
Codec ID : A_AC3
Duration : 1h 23mn
Bit rate mode : Constant
Bit rate : 448 Kbps
Channel(s) : 6 channels
Channel positions : Front: L C R, Side: L R, LFE
Sampling rate : 48.0 KHz
Bit depth : 16 bits
Compression mode : Lossy
Stream size : 269 MiB (6%)
Language : Russian
Default : Yes
Forced : No

Audio #2
ID : 3
Format : AC-3
Format/Info : Audio Coding 3
Mode extension : CM (complete main)
Codec ID : A_AC3
Duration : 1h 23mn
Bit rate mode : Constant
Bit rate : 448 Kbps
Channel(s) : 6 channels
Channel positions : Front: L C R, Side: L R, LFE
Sampling rate : 48.0 KHz
Bit depth : 16 bits
Compression mode : Lossy
Stream size : 269 MiB (6%)
Language : English
Default : No
Forced : No

Text
ID : 4
Format : UTF-8
Codec ID : S_TEXT/UTF8
Codec ID/Info : UTF-8 Plain Text
Language : English
Default : No
Forced : No




   Похожие торренты   Торрент   Размер 
В этой теме нет новых непрочитанных сообщений. Хроника / Chronicle (2012) BDRip 720p от Leonardo and Scarabey | Лицензия

777 | 53

3.67 ГБ

В этой теме нет новых непрочитанных сообщений. Хроника / Chronicle (2012) BDRip-AVC от Leonardo and Scarabey | Лицензия

567 | 81

2.18 ГБ

В этой теме нет новых непрочитанных сообщений. Хроника / Chronicle (2012) BDRip | D | Театральная версия

35 | 0

1.45 ГБ

В этой теме нет новых непрочитанных сообщений. Хроника / The Chronicle [S01] (2001-2002) SATRip | A

50 | 83

8.37 ГБ

В этой теме нет новых непрочитанных сообщений. Discovery. Хроника покорения Эвереста с Беаром Гриллсом / Chronicle of the conquest of Everest with Bear Grylls (2014) HDTVRip от HitWay

45 | 4

541.29 МБ

В этой теме нет новых непрочитанных сообщений. Discovery. Хроника покорения Эвереста с Беаром Гриллсом / Chronicle of the conquest of Everest with Bear Grylls (2014) HDTV (1080i) от HitWay

96 | 11

1.43 ГБ

В этой теме нет новых непрочитанных сообщений. Dariusburst: Chronicle Saviours (2015) PC | Лицензия

31 | 4

1.14 ГБ




Вы не можете начинать темы
Вы не можете отвечать на сообщения
Вы не можете редактировать свои сообщения
Вы не можете удалять свои сообщения
Вы не можете добавлять вложения

Перейти:  
 Вход
ppkBB3cker v.2 © 2008-2014 @ PPK
[ Time : 0.044s | 17 Queries | GZIP : Off ]

cron