img image001 image001 image001 image001 image001 image001 image001 image001 image001 image001 image001 image001 image001 image001 image001

Planets Sun Sun Sun

COVID-19 - Последняя информация о коронавирусе на сайте Минздрава


Статистика раздачи
Автор: PriZraK | Размер: 963.93 МБ | Добавлен: 07 дек 2016
Раздают: 2    Качают: 1
Скачать торрент
Скачать торрент
Описание торрента

СообщениеДобавлено: 07 дек 2016 


Информация о фильме
Название: Приключения в Эплтауне / Короли Эпплтауна
Оригинальное название: Adventures In Appletown / Kings of Appletown
Год выхода: 2008
Жанр: семейный, приключения, детектив, комедия
Режиссер: Роберт Мореско
В ролях: Дилан Спроус, Коул Спроус, Виктория Джастис, Р.Д. Колл, Кейт Бёртон, Патрик Бреннан, Сиера Джейд Гердан, Лиза Ламендола, Гленн Таранто, Даниэль Сакапа
О фильме:
Кузены Уилл и Клейтон случайно становятся свидетелями преступления. Совершено убийство и ограблена местная ежегодная ярмарка. Украдены золотые монеты - призовые деньги одного из ярмарочных аттракционов. Уилл и Клейтон не решаются обратиться в полицию, так как хитрый убийца не оставил после себя улик и сумел подставить невиновного человека. Единственная возможность уличить убийцу - найти украденное золото...

Производство: США / Moresco Productions, Oak Films
Продолжительность: 01:34:59
Перевод: русские субтитры от souther
Файл
Качество: DVDRip
Формат: AVI
Видео: XviD, 704x480@853x480 (16:9), 23.976 fps, 1280 kbps, 0.158 bit/pixel
Аудио: английский, MP3 2.0, 48 kHz, 125 kbps
Субтитры: русские внешние, SRT
Формат : AVI
Формат/Информация : Audio Video Interleave
Размер файла : 964 Мбайт
Продолжительность : 1 ч. 34 м.
Режим общего битрейта : Переменный
Общий поток : 1419 Кбит/сек
Программа кодирования : VirtualDubMod 1.5.10.2 (build 2540/release)
Библиотека кодирования : VirtualDubMod build 2540/release
Видео
Идентификатор : 0
Формат : MPEG-4 Visual
Профиль формата : Advanced Simple@L5
Параметр BVOP формата : 2
Параметр QPel формата : Нет
Параметр GMC формата : Без точки перехода
Параметр матрицы формата : Default (H.263)
Режим смешивания : Сжатый битовый поток
Идентификатор кодека : XVID
Идентификатор кодека/Подсказка : XviD
Продолжительность : 1 ч. 34 м.
Битрейт : 1280 Кбит/сек
Ширина : 704 пикселя
Высота : 480 пикселей
Соотношение сторон : 16:9
Частота кадров : 23,976 кадра/сек
Цветовое пространство : YUV
Субдискретизация насыщенности : 4:2:0
Битовая глубина : 8 бит
Тип развёртки : Прогрессивная
Метод сжатия : С потерями
Бит/(Пиксели*Кадры) : 0.158
Размер потока : 870 Мбайт (90%)
Библиотека кодирования : XviD 1.2.1 (UTC 2008-12-04)
Аудио
Идентификатор : 1
Формат : MPEG Audio
Версия формата : Version 1
Профиль формата : Layer 3
Режим : Joint stereo
Расширение режима : MS Stereo
Идентификатор кодека : 55
Идентификатор кодека/Подсказка : MP3
Продолжительность : 1 ч. 34 м.
Вид битрейта : Переменный
Битрейт : 125 Кбит/сек
Минимальный битрейт : 32,0 Кбит/сек
Каналы : 2 канала
Частота : 48,0 КГц
Метод сжатия : С потерями
Размер потока : 85,2 Мбайт (9%)
Выравнивание : Соединение по промежуткам
Продолжительность промежутка : 24 мс. (0,58 видеокадр)
Время предзагрузки промежутка : 146 мс.
Библиотека кодирования : LAME3.98r
Настройки программы : -m j -V 5 -q 2 -lowpass 16.5 --vbr-new -b 32

Релиз от:

   Похожие торренты   Торрент   Размер 
В этой теме нет новых непрочитанных сообщений. Короли улиц / Street Kings (2008) HDRip-AVC | D

70 | 11

744.3 МБ

В этой теме нет новых непрочитанных сообщений. Жить как короли / Comme des rois (1997) DVDRip | P

0 | 0

1.37 ГБ

В этой теме нет новых непрочитанных сообщений. Короли солнца / Kings of the Sun (1963) DVDRip-AVC от k.e.n & MegaPeer | P

23 | 3

1.46 ГБ

В этой теме нет новых непрочитанных сообщений. Приключения Синдбада / The Adventures of Sinbad [S01-02] (1996-1998) DVDRip | P

4 | 1

28.76 ГБ

В этой теме нет новых непрочитанных сообщений. Приключения Бриско Каунти младшего / The Adventures Of Brisco County, Jr. [1-27 из 27] (1993-1994) DVDRip

4 | 4

19.3 ГБ

В этой теме нет новых непрочитанных сообщений. Питомец Юрского периода / The Adventures of Jurassic Pet (Райан Белгардт) [2019, приключения, семейный, DVDRip]

5 | 0

1.46 ГБ

В этой теме нет новых непрочитанных сообщений. Приключения мультяшек / Tiny Toon Adventures (Сезон: 1-3, Серии: 1-98 из 98) (Стивен Спилберг) [1990-1992, Мультсериал, DVDRip] DUB

1 | 0

35.73 ГБ




Вы не можете начинать темы
Вы не можете отвечать на сообщения
Вы не можете редактировать свои сообщения
Вы не можете удалять свои сообщения
Вы не можете добавлять вложения

Перейти:  
Контактная информация: rstracker[пёсик]yandex.ru
cron
 Вход
ppkBB3cker v.2 © 2008-2014 @ PPK
[ Time : 0.021s | 17 Queries | GZIP : Off ]

cron