img image001 image001 image001 image001 image001 image001 image001 image001 image001 image001 image001 image001 image001 image001 image001

Planets Sun Sun Sun

COVID-19 - Последняя информация о коронавирусе на сайте Минздрава


Статистика раздачи
Автор: PriZraK | Размер: 2.81 ГБ | Добавлен: 09 дек 2016
Раздают: 1    Качают: 2
Скачать торрент
Скачать торрент
Описание торрента

СообщениеДобавлено: 09 дек 2016 

Название: Сексуальная злоба
Оригинальное название: Sexual Malice
Год выхода: 1994
Страна: США
Студия: Axis Films International
Продолжительность: 01:34:33
Жанр: триллер
Режиссер: Джаг Мундра
В ролях: Эдвард Альберт, Чэд МакКуин, Джон Лофлин, Диана Бартон, Саманта Филлипс, Дон Суэйзи, Даг Джеффри, Кэти Шоуэр, Мэтт Роу, Ричард Тэннер, ...
Перевод: Авторский (одноголосый, закадровый) Иванов Михаил Николаевич
О фильме: У Кристины есть все, любящий муж — преподаватель университета, прекрасная квартира, да и сама она сексуально привлекательная женщина. Но коварная подруга познакомила ее с неотразимым Куином, с которым Крис начала безмерно предаваться плотским утехам…

Кодек: x264
Качество: DVDRip-AVC
Видео: 748x572, 3800 kbps, 25 fps
Аудио #1: AC-3, 2 ch, 192 kbps (Rus) - AVO Иванов Михаил Николаевич
Аудио #2: AC-3, 2 ch, 256 kbps (Pol)
Субтитры: нет
Спасибо за исходник
x264 [info]: frame I:858 Avg QP:16.32 size: 61375
x264 [info]: frame P:25422 Avg QP:18.55 size: 30383
x264 [info]: frame B:115552 Avg QP:20.52 size: 16197
x264 [info]: consecutive B-frames: 0.8% 0.7% 3.2% 8.0% 11.8% 60.1% 7.2% 2.2% 2.7% 0.7% 0.8% 1.4% 0.4%
Общее
Уникальный идентификатор : 183311206555736880398367307344792281786 (0x89E87445739103E2B95942E05D3462BA)
Полное имя : Сексуальная злоба (Sexual Malice) 1994 DVDRip.mkv
Формат : Matroska
Версия формата : Version 2
Размер файла : 2,81 Гбайт
Продолжительность : 1 ч. 34 м.
Общий поток : 4253 Кбит/сек
Дата кодирования : UTC 2016-11-27 05:17:06
Программа кодирования : mkvmerge v4.0.0 ('The Stars were mine') сборка от Jun 6 2010 16:18:42
Библиотека кодирования : libebml v1.0.0 + libmatroska v1.0.0
Видео
Идентификатор : 1
Формат : AVC
Формат/Информация : Advanced Video Codec
Профиль формата : High@L4.1
Параметр CABAC формата : Да
Параметр ReFrames формата : 12 кадров
Идентификатор кодека : V_MPEG4/ISO/AVC
Продолжительность : 1 ч. 34 м.
Битрейт : 3800 Кбит/сек
Ширина : 748 пикселей
Высота : 572 пикселя
Соотношение сторон : 4:3
Режим частоты кадров : Постоянный
Частота кадров : 25,000 кадров/сек
Цветовое пространство : YUV
Субдискретизация насыщенности : 4:2:0
Битовая глубина : 8 бит
Тип развёртки : Прогрессивная
Бит/(Пиксели*Кадры) : 0.355
Размер потока : 2,46 Гбайт (87%)
Библиотека кодирования : x264 core 146 r2538 121396c
Настройки программы : cabac=1 / ref=12 / deblock=1:-3:-3 / analyse=0x3:0x133 / me=umh / subme=11 / psy=1 / psy_rd=1.00:0.00 / mixed_ref=1 / me_range=32 / chroma_me=1 / trellis=2 / 8x8dct=1 / cqm=0 / deadzone=21,11 / fast_pskip=0 / chroma_qp_offset=-2 / threads=12 / lookahead_threads=2 / sliced_threads=0 / nr=0 / decimate=0 / interlaced=0 / bluray_compat=0 / constrained_intra=0 / bframes=12 / b_pyramid=2 / b_adapt=2 / b_bias=0 / direct=3 / weightb=1 / open_gop=0 / weightp=2 / keyint=250 / keyint_min=25 / scenecut=40 / intra_refresh=0 / rc=2pass / mbtree=0 / bitrate=3800 / ratetol=1.0 / qcomp=0.60 / qpmin=0 / qpmax=69 / qpstep=4 / cplxblur=20.0 / qblur=0.5 / ip_ratio=1.40 / pb_ratio=1.30 / aq=1:0.80
Язык : English
Default : Нет
Forced : Нет
Аудио #1
Идентификатор : 2
Формат : AC-3
Формат/Информация : Audio Coding 3
Расширение режима : CM (complete main)
Параметр Endianness формата : Big
Идентификатор кодека : A_AC3
Продолжительность : 1 ч. 34 м.
Вид битрейта : Постоянный
Битрейт : 192 Кбит/сек
Каналы : 2 канала
Расположение каналов : Front: L R
Частота : 48,0 КГц
Частота кадров : 31,250 кадров/сек (1536 spf)
Метод сжатия : С потерями
Размер потока : 130 Мбайт (5%)
Заголовок : AVO Иванов Михаил Николаевич
Язык : Russian
Default : Нет
Forced : Нет
Аудио #2
Идентификатор : 3
Формат : AC-3
Формат/Информация : Audio Coding 3
Расширение режима : CM (complete main)
Параметр Endianness формата : Big
Идентификатор кодека : A_AC3
Продолжительность : 1 ч. 34 м.
Вид битрейта : Постоянный
Битрейт : 256 Кбит/сек
Каналы : 2 канала
Расположение каналов : Front: L R
Частота : 48,0 КГц
Частота кадров : 31,250 кадров/сек (1536 spf)
Метод сжатия : С потерями
Размер потока : 173 Мбайт (6%)
Язык : English
Default : Нет
Forced : Нет



   Похожие торренты   Торрент   Размер 
В этой теме нет новых непрочитанных сообщений. Сексуальная злоба / Sexual Malice (1994) DVDRip от KinoRay & Sheikn | A

3 | 3

700.15 МБ

В этой теме нет новых непрочитанных сообщений. Сексуальная злоба / Sexual Malice (1994) DVD9 | A

2 | 0

4.51 ГБ

В этой теме нет новых непрочитанных сообщений. Слепая злоба / Blind Malice (Грэхэм Стритер / Graham Streeter) [2014, триллер, WEBRip-AVC] VO / Фильмы HDRip

4 | 0

2.05 ГБ

В этой теме нет новых непрочитанных сообщений. Секс вне закона / Сексуальные преступники / Sexual Outlaws (1994) DVDRip | P2

192 | 20

1.37 ГБ

В этой теме нет новых непрочитанных сообщений. Потеря сексуальной невинности / The Loss of Sexual Innocence (1999) DVDRip-AVC | A

170 | 13

3.14 ГБ

В этой теме нет новых непрочитанных сообщений. Unagi Growl - Ненависть и злоба (2016) MP3

13 | 1

61.34 МБ

В этой теме нет новых непрочитанных сообщений. Изнасилованная ангелом 3: Сексуальная фантазия мастера пыток / Keung gaan 3: Ol yau waak (1998) DVDRip | L1

19 | 2

746.05 МБ




Вы не можете начинать темы
Вы не можете отвечать на сообщения
Вы не можете редактировать свои сообщения
Вы не можете удалять свои сообщения
Вы не можете добавлять вложения

Перейти:  
Контактная информация: rstracker[пёсик]yandex.ru
 Вход
ppkBB3cker v.2 © 2008-2014 @ PPK
[ Time : 0.039s | 19 Queries | GZIP : Off ]

cron