img image001 image001 image001 image001 image001 image001 image001 image001 image001 image001 image001 image001 image001 image001 image001

Planets Sun Sun Sun

COVID-19 - Последняя информация о коронавирусе на сайте Минздрава


Статистика раздачи
Автор: PriZraK | Размер: 2.66 ГБ | Добавлен: 12 дек 2016
Раздают: 0    Качают: 0
Скачать торрент
Скачать торрент
Описание торрента

СообщениеДобавлено: 12 дек 2016 

Название: Класс 1999
Оригинальное название: Class of 1999
Год выхода: 1990
Страна: США
Студия: Lightning Pictures, Original Pictures, Vestron Pictures
Продолжительность: 01:36:10
Жанр: ужасы, фантастика, боевик
Режиссер: Марк Л. Лестер
В ролях: Брэдли Грегг, Трейси Линд, Малкольм МакДауэлл, Стейси Кич, Пэтрик Килпэтрик, Пэм Гриер, Джон П. Райан, Даррен Э. Берроуз, Джошуа Джон Миллер, Шэрон Уайатт, ...
Перевод:
- Профессиональный (двухголосый, закадровый) CP-Digital
- Профессиональный (двухголосый, закадровый) ?
- Авторский (одноголосый, закадровый) Санаев Павел Владимирович
- Авторский (одноголосый, закадровый) Прямостанов Павел Анатольевич
- Субтитры
О фильме: Время действия — 1999 год. В школах и вузах США — полный беспредел, творимый молодежными бандами. Департамент Обороны Образования, отчаявшись навести дисциплину в Высшей школе Кеннеди решает воспользоваться услугами фирмы «Мегатек», работавшей на оборону и продолжающей вести разработку различных моделей роботов, в том числе учителей-киборгов.
Три электронных учителя, прибывшие в школу, моментально звереют от общения со своими студентами и начинают безжалостное смертельное сражение «за успеваемость и посещаемость». На этот раз юные бандиты находят себе равных противников!…

Кодек: x264
Качество: DVDRip-AVC
Видео: 848x476, 3500 kbps, 23,976 fps
Аудио #1: AC-3, 2 ch, 192 kbps (Rus) - DVO CP-Digital
Аудио #2: AC-3, 2 ch, 192 kbps (Rus) - DVO
Аудио #3: AC-3, 2 ch, 192 kbps (Rus) - AVO Санаев Павел Владимирович
Аудио #4: AC-3, 2 ch, 192 kbps (Rus) - AVO Прямостанов Павел Анатольевич
Аудио #5: AC-3, 2 ch, 192 kbps (Eng)
Субтитры: Русские, Английские
За исходник спасибо - max1wq

x264 [info]: frame I:988 Avg QP:15.84 size: 60598
x264 [info]: frame P:28855 Avg QP:18.47 size: 28055
x264 [info]: frame B:108515 Avg QP:20.79 size: 11922
x264 [info]: consecutive B-frames: 1.4% 2.1% 7.2% 20.2% 17.1% 41.5% 5.1% 2.2% 1.5% 0.8% 0.3% 0.4% 0.2%
Общее
Уникальный идентификатор : 206476223311642509896493707077195562791 (0x9B55DFC6DA102F0A9C7C319F6B767F27)
Полное имя : Класс 2 1999 (Class of 1999) 1990 DVDRip.mkv
Формат : Matroska
Версия формата : Version 2
Размер файла : 2,66 Гбайт
Продолжительность : 1 ч. 36 м.
Общий поток : 3962 Кбит/сек
Дата кодирования : UTC 2016-12-10 13:39:33
Программа кодирования : mkvmerge v4.0.0 ('The Stars were mine') сборка от Jun 6 2010 16:18:42
Библиотека кодирования : libebml v1.0.0 + libmatroska v1.0.0
Видео
Идентификатор : 1
Формат : AVC
Формат/Информация : Advanced Video Codec
Профиль формата : High@L4.1
Параметр CABAC формата : Да
Параметр ReFrames формата : 12 кадров
Идентификатор кодека : V_MPEG4/ISO/AVC
Продолжительность : 1 ч. 36 м.
Битрейт : 3000 Кбит/сек
Ширина : 848 пикселей
Высота : 476 пикселей
Соотношение сторон : 16:9
Режим частоты кадров : Постоянный
Частота кадров : 23,976 (24000/1001) кадра/сек
Цветовое пространство : YUV
Субдискретизация насыщенности : 4:2:0
Битовая глубина : 8 бит
Тип развёртки : Прогрессивная
Бит/(Пиксели*Кадры) : 0.310
Размер потока : 1,96 Гбайт (74%)
Библиотека кодирования : x264 core 146 r2538 121396c
Настройки программы : cabac=1 / ref=12 / deblock=1:-3:-3 / analyse=0x3:0x133 / me=umh / subme=11 / psy=1 / psy_rd=1.00:0.00 / mixed_ref=1 / me_range=32 / chroma_me=1 / trellis=2 / 8x8dct=1 / cqm=0 / deadzone=21,11 / fast_pskip=0 / chroma_qp_offset=-2 / threads=12 / lookahead_threads=2 / sliced_threads=0 / nr=0 / decimate=0 / interlaced=0 / bluray_compat=0 / constrained_intra=0 / bframes=12 / b_pyramid=2 / b_adapt=2 / b_bias=0 / direct=3 / weightb=1 / open_gop=0 / weightp=2 / keyint=240 / keyint_min=23 / scenecut=40 / intra_refresh=0 / rc=2pass / mbtree=0 / bitrate=3000 / ratetol=1.0 / qcomp=0.60 / qpmin=0 / qpmax=69 / qpstep=4 / cplxblur=20.0 / qblur=0.5 / ip_ratio=1.40 / pb_ratio=1.30 / aq=1:0.80
Язык : English
Default : Нет
Forced : Нет
Аудио #1
Идентификатор : 2
Формат : AC-3
Формат/Информация : Audio Coding 3
Расширение режима : CM (complete main)
Параметр Endianness формата : Big
Идентификатор кодека : A_AC3
Продолжительность : 1 ч. 36 м.
Вид битрейта : Постоянный
Битрейт : 192 Кбит/сек
Каналы : 2 канала
Расположение каналов : Front: L R
Частота : 48,0 КГц
Частота кадров : 31,250 кадров/сек (1536 spf)
Метод сжатия : С потерями
Размер потока : 132 Мбайт (5%)
Заголовок : DVO CP-Digital
Язык : Russian
Default : Нет
Forced : Нет
Аудио #2
Идентификатор : 3
Формат : AC-3
Формат/Информация : Audio Coding 3
Расширение режима : CM (complete main)
Параметр Endianness формата : Big
Идентификатор кодека : A_AC3
Продолжительность : 1 ч. 36 м.
Вид битрейта : Постоянный
Битрейт : 192 Кбит/сек
Каналы : 2 канала
Расположение каналов : Front: L R
Частота : 48,0 КГц
Частота кадров : 31,250 кадров/сек (1536 spf)
Метод сжатия : С потерями
Размер потока : 132 Мбайт (5%)
Заголовок : DVO
Язык : Russian
Default : Нет
Forced : Нет
Аудио #3
Идентификатор : 4
Формат : AC-3
Формат/Информация : Audio Coding 3
Расширение режима : CM (complete main)
Параметр Endianness формата : Big
Идентификатор кодека : A_AC3
Продолжительность : 1 ч. 36 м.
Вид битрейта : Постоянный
Битрейт : 192 Кбит/сек
Каналы : 2 канала
Расположение каналов : Front: L R
Частота : 48,0 КГц
Частота кадров : 31,250 кадров/сек (1536 spf)
Метод сжатия : С потерями
Размер потока : 132 Мбайт (5%)
Заголовок : AVO Санаев Павел Владимирович
Язык : Russian
Default : Нет
Forced : Нет
Аудио #4
Идентификатор : 5
Формат : AC-3
Формат/Информация : Audio Coding 3
Расширение режима : CM (complete main)
Параметр Endianness формата : Big
Идентификатор кодека : A_AC3
Продолжительность : 1 ч. 36 м.
Вид битрейта : Постоянный
Битрейт : 192 Кбит/сек
Каналы : 2 канала
Расположение каналов : Front: L R
Частота : 48,0 КГц
Частота кадров : 31,250 кадров/сек (1536 spf)
Метод сжатия : С потерями
Размер потока : 132 Мбайт (5%)
Заголовок : AVO Прямостанов Павел Анатольевич
Язык : Russian
Default : Нет
Forced : Нет
Аудио #5
Идентификатор : 6
Формат : AC-3
Формат/Информация : Audio Coding 3
Расширение режима : CM (complete main)
Параметр Endianness формата : Big
Идентификатор кодека : A_AC3
Продолжительность : 1 ч. 36 м.
Вид битрейта : Постоянный
Битрейт : 192 Кбит/сек
Каналы : 2 канала
Расположение каналов : Front: L R
Частота : 48,0 КГц
Частота кадров : 31,250 кадров/сек (1536 spf)
Метод сжатия : С потерями
Размер потока : 132 Мбайт (5%)
Язык : English
Default : Нет
Forced : Нет
Текст #1
Идентификатор : 7
Формат : UTF-8
Идентификатор кодека : S_TEXT/UTF8
Идентификатор кодека/Информация : UTF-8 Plain Text
Язык : Russian
Default : Нет
Forced : Нет
Текст #2
Идентификатор : 8
Формат : UTF-8
Идентификатор кодека : S_TEXT/UTF8
Идентификатор кодека/Информация : UTF-8 Plain Text
Язык : English
Default : Нет
Forced : Нет



   Похожие торренты   Торрент   Размер 
В этой теме нет новых непрочитанных сообщений. Класс 1999 / Class of 1999 (1990) BDRip-AVC от R.G.Resident | P2, A

17 | 1

3.49 ГБ

В этой теме нет новых непрочитанных сообщений. Класс 1999 / Class of 1999 (1990) DVDRip от Scarabey | P

77 | 8

1.44 ГБ

В этой теме нет новых непрочитанных сообщений. Класс 1999 / Class of 1999 (1990) BDRip 1080p от R.G.Resident | P2, A

15 | 2

10.77 ГБ

В этой теме нет новых непрочитанных сообщений. Класс 1999 / Class of 1999 (1990) BDRip 720p | P2, A

31 | 8

6.22 ГБ

В этой теме нет новых непрочитанных сообщений. Класс 1999 / Class of 1999 (1990) HDRip от Portablius | P2

16 | 5

1.37 ГБ

В этой теме нет новых непрочитанных сообщений. Класс 1999: Новый учитель / Class of 1999 II: The Substitute (1994) DVDRip-AVC | P2, A

0 | 0

2.48 ГБ

В этой теме нет новых непрочитанных сообщений. Класс / Class (1983) BDRip от HQCLUB | P2

0 | 1

1.45 ГБ




Вы не можете начинать темы
Вы не можете отвечать на сообщения
Вы не можете редактировать свои сообщения
Вы не можете удалять свои сообщения
Вы не можете добавлять вложения

Перейти:  
Контактная информация: rstracker[пёсик]yandex.ru
 Вход
ppkBB3cker v.2 © 2008-2014 @ PPK
[ Time : 0.017s | 18 Queries | GZIP : Off ]

cron