img image001 image001 image001 image001 image001 image001 image001 image001 image001 image001 image001 image001 image001 image001 image001

Planets Sun Sun Sun

COVID-19 - Последняя информация о коронавирусе на сайте Минздрава


Статистика раздачи
Автор: PriZraK | Размер: 745.1 МБ | Добавлен: 13 дек 2016
Раздают: 3    Качают: 0
Скачать торрент
Скачать торрент
Описание торрента

СообщениеДобавлено: 13 дек 2016 


Информация о фильме
Название: Дух студента
Оригинальное название: School Spirit
Год выхода: 1985
Жанр: Комедия, фэнтези
Режиссер: Алан Холлеб
В ролях: Том Нолан, Элизабет Фокс, Ларри Линвилл, Роберта Коллинз, Тони Хадсон.....
О фильме:
Молодой парень Билли Бэтсон едет на свидание со своей девушкой. Он надеется на секс с ней, но у него нет ни одного презерватива. Тогда он едет за презервативами и находит их в придорожной закусочной. Теперь он спешит обратно и на большой скорости врезается своей машиной в большой грузовик и погибает. На небесах его воскрешают, но уже в виде духа, чтобы он смог встретиться со своей любимой и провести с ней ночь. Билли теперь невидим и может увидеть всё, о чём раньше и не мог мечтать. Например наблюдать за голыми девушками в женской раздевалке. И он решает немного пошалить.

Страна: США
Студия: Chroma III Productions
Продолжительность: 01:30:49
Перевод: Авторский (одноголосый, закадровый) - Леонид Володарский
Файл
Кодек: XviD
Качество: DVDRip
Видео: 512x384 (1.33:1), 23.976 fps, XviD build 73 ~1010 kbps avg, 0.21 bit/pixel
Звук: 48 kHz, MPEG Layer 3, 2 ch, ~128.00 kbps avg
Субтитры: Отсутствуют
Семпл
General
Complete name : D:Изготовление рипаSchool Spirit_dvdrip by shkiper.avi
Format : AVI
Format/Info : Audio Video Interleave
File size : 745 MiB
Duration : 1 h 30 min
Overall bit rate : 1 147 kb/s
Writing application : VirtualDubMod 1.5.10.3 | www.virtualdub-fr.org || (build 2550/release)
Writing library : VirtualDubMod build 2550/release
Video
ID : 0
Format : MPEG-4 Visual
Format profile : Advanced Simple@L5
Format settings, BVOP : 1
Format settings, QPel : No
Format settings, GMC : No warppoints
Format settings, Matrix : Custom
Codec ID : XVID
Codec ID/Hint : XviD
Duration : 1 h 30 min
Bit rate : 1 010 kb/s
Width : 512 pixels
Height : 384 pixels
Display aspect ratio : 4:3
Frame rate : 23.976 (24000/1001) FPS
Color space : YUV
Chroma subsampling : 4:2:0
Bit depth : 8 bits
Scan type : Progressive
Compression mode : Lossy
Bits/(Pixel*Frame) : 0.214
Stream size : 656 MiB (88%)
Writing library : XviD 73
Audio
ID : 1
Format : MPEG Audio
Format version : Version 1
Format profile : Layer 3
Codec ID : 55
Codec ID/Hint : MP3
Duration : 1 h 30 min
Bit rate mode : Constant
Bit rate : 128 kb/s
Channel(s) : 2 channels
Sampling rate : 48.0 kHz
Compression mode : Lossy
Stream size : 83.1 MiB (11%)
Alignment : Aligned on interleaves
Interleave, duration : 42 ms (1.00 video frame)
Interleave, preload duratio : 504 ms
Writing library : LAME3.99r
Encoding settings : -m s -V 4 -q 2 -lowpass 17 -b 128

Релиз от:

   Похожие торренты   Торрент   Размер 
В этой теме нет новых непрочитанных сообщений. Дух студента / School Spirit (1985) DVD5 | A

0 | 0

4.29 ГБ

В этой теме нет новых непрочитанных сообщений. Сражение!! Дух меча / Fight!! Spirit of the Sword (1993) DVDRip-AVC | L2

0 | 0

390.43 МБ

В этой теме нет новых непрочитанных сообщений. Дух игры / Spirit of the Game (2016) WEB-DLRip | L

3 | 4

1.37 ГБ

В этой теме нет новых непрочитанных сообщений. Дух Сент-Луиса / The Spirit of St. Louis (1957) WEB-DL 1080p | A

5 | 6

14.54 ГБ

В этой теме нет новых непрочитанных сообщений. Дух игры / Spirit of the Game (2016) WEB-DLRip 720р | L

6 | 2

3.12 ГБ

В этой теме нет новых непрочитанных сообщений. Дух Рождества 3: Сказки братьев Гримм / The Christmas Spirit 3: Grimm Tales (2019) PC

40 | 0

1.18 ГБ

В этой теме нет новых непрочитанных сообщений. Тёмный дух / Scaler, Dark Spirit (Дэн Т. Холл) [2016, ужасы, триллер, WEBDLRip] MVO

2 | 0

1.36 ГБ




Вы не можете начинать темы
Вы не можете отвечать на сообщения
Вы не можете редактировать свои сообщения
Вы не можете удалять свои сообщения
Вы не можете добавлять вложения

Перейти:  
Контактная информация: rstracker[пёсик]yandex.ru
 Вход
ppkBB3cker v.2 © 2008-2014 @ PPK
[ Time : 0.037s | 17 Queries | GZIP : Off ]

cron