img image001 image001 image001 image001 image001 image001 image001 image001 image001 image001 image001 image001 image001 image001 image001

Planets Sun Sun Sun
Статистика раздачи
Автор: PriZraK | Размер: 1.45 ГБ | Добавлен: 16 дек 2016
Раздают: 39    Качают: 0
Скачать торрент
Скачать торрент
Описание торрента

СообщениеДобавлено: 16 дек 2016 



Информация о фильме
Название: Жертва
Оригинальное название: Sacrifice
Год выхода: 2016
Жанр: триллер
Режиссер: Питер Э. Даулинг
В ролях: Рада Митчелл, Руперт Грейвз, Йен МакЭлхинни, Дэвид Робб, Лайам Карни, Питер Фоллебрегт, Деклан Конлон, Леса Турман Конор Маллен, Джоэнн Кроуфорд
О фильме:
Консультирующий хирург Тора Гамильтон вместе с мужем Дунканом переезжает на удаленные Шетландские острова, в 100 милях от северо-восточного побережья Шотландии. На территории своего нового дома Тора находит изрезанное руническими знаками тело молодой женщины, вместо сердца у которой — дыра. Не обращая внимания на предупреждения оставить все как есть, Тора все ближе подбирается к страшнейшей легенде, которую никто и никогда не осмелился бы записать.

Выпущено: Ирландия, Германия, США / Boulder Media, Cheyenne Enterprises, Fundamental Entertainment, Schubert International Filmproduktions, Subotica Entertainment Ltd.
Продолжительность: 01:31:06
Озвучивание: Любительское (двухголосое) [Студия Колобок]
• Роли озвучивали: den904, DeadSno
• Перевод: ZvukiVuki
Файл
Формат: MKV
Качество: HDRip-AVC
Видео: MPEG-4 AVC, ~1831 kb/s, 984x412
Аудио: AC3, 448 kb/s (6 ch)
Субтитры: English
• Примечание: Релиз без рекламы.


x264 info: frame I:1235 Avg QP:12.88 size: 69438
x264 info: frame P:29504 Avg QP:15.43 size: 19519
x264 info: frame B:100303 Avg QP:17.54 size: 5845
General
Unique ID : 300800310322989191183841881766230007781 (0xE24C085179770357556C365B91E09FE5)
Complete name : F:Жертва.(2016).HDRip-AVC. L2.[-=DoMiNo=-].mkv
Format : Matroska
Format version : Version 4 / Version 2
File size : 1.45 GiB
Duration : 1 h 31 min
Overall bit rate : 2 278 kb/s
Movie name : Жертва
Deion : Консультирующий хирург Тора Гамильтон вместе с мужем Дунканом переезжает на удаленные Шетландские острова, в 100 милях от северо-восточного побережья Шотландии. На территории своего нового дома Тора находит изрезанное руническими знаками тело молодой женщины, вместо сердца у которой — дыра. Не обращая внимания на предупреждения оставить все как есть, Тора все ближе подбирается к страшнейшей легенде, которую никто и никогда не осмелился бы записать.
Writing application : XviD4PSP 7.0.335 DAILY
Writing library : Lavf57.41.100 / Lavf57.41.100
Attachments : poster.jpg
ACTORS : Рада Митчелл, Руперт Грейвз, Йен МакЭлхинни, Дэвид Робб, Лайам Карни, Джоэнн Кроуфорд, Конор Маллен, Питер Фоллебрегт, Рэйчел Олива, Деклан Конлон, Арон Хегарти, Леса Турман, Хилари Роуз, Бернадетт Браун, Дирдри Монахэн, Мелисса Мария Картон, Клер Баррет, Пол Алан Уолш
COMPOSER : Бенедикт Брайдерн
COUNTRY : Ирландия, Германия, США
DATE : 2016
DIRECTOR : Питер Э. Даулинг
ENCODING_INFO : MATROSKA,WEBM > MKV / H264 > X264 VBR-2P 1831kbps Slower / AC3 > COPY
GENRE : триллер, детектив
HD_VIDEO : 1
IMDB_RATING : 5.20
MEDIA_TYPE : 9
ORIGINAL_ACTORS : Radha Mitchell, Rupert Graves, Ian McElhinney, David Robb, Liam Carney, Joanne Crawford, Conor Mullen, Peter Vollebregt, Rachel Oliva, Declan Conlon, Aron Hegarty, Lesa Thurman, Hilary Rose, Bernadette Brown, Deirdre Monaghan, Melissa Maria Carton, Clare Barrett, Paul Alan Walsh
ORIGINAL_TITLE : Sacrifice
PRODUCER : Питер Льюис, Тристан Линч, Ифа О’Салливан, Арнольд Рифкин, Йозеф Брандмайер, Лоуренс Стивен Мейерс, Гертян Ройяккерс, Birgit Rothörl, Джонатан Тайбель
RATING : 5.403
WRITER : Питер Э. Даулинг, Шэрон Болтон
Video
ID : 1
Format : AVC
Format/Info : Advanced Video Codec
Format profile : High@L4.1
Format settings, CABAC : Yes
Format settings, ReFrames : 12 frames
Codec ID : V_MPEG4/ISO/AVC
Duration : 1 h 31 min
Bit rate : 1 831 kb/s
Width : 984 pixels
Height : 412 pixels
Display aspect ratio : 2.40:1
Frame rate mode : Constant
Frame rate : 23.976 (24000/1001) FPS
Color space : YUV
Chroma subsampling : 4:2:0
Bit depth : 8 bits
Scan type : Progressive
Bits/(Pixel*Frame) : 0.188
Stream size : 1.14 GiB (78%)
Title : RIP_BY_[-=DoMiNo=-]
Writing library : x264 core 148 r2744M b97ae06
Encoding settings : cabac=1 / ref=12 / deblock=1:-3:-3 / analyse=0x3:0x133 / me=umh / subme=11 / psy=1 / psy_rd=1.00:0.10 / mixed_ref=1 / me_range=32 / chroma_me=1 / trellis=2 / 8x8dct=1 / cqm=0 / deadzone=21,11 / fast_pskip=0 / chroma_qp_offset=-3 / threads=5 / lookahead_threads=1 / sliced_threads=0 / nr=0 / decimate=1 / interlaced=0 / bluray_compat=0 / constrained_intra=0 / bframes=11 / b_pyramid=2 / b_adapt=2 / b_bias=0 / direct=3 / weightb=1 / open_gop=0 / weightp=2 / keyint=230 / keyint_min=23 / scenecut=40 / intra_refresh=0 / rc=2pass / mbtree=0 / bitrate=1831 / ratetol=1.0 / qcomp=0.60 / qpmin=0 / qpmax=69 / qpstep=4 / cplxblur=20.0 / qblur=0.5 / ip_ratio=1.40 / pb_ratio=1.30 / aq=1:1.00
Language : English
Default : Yes
Forced : No
DURATION : 01:31:05.502000000
Audio
ID : 2
Format : AC-3
Format/Info : Audio Coding 3
Mode extension : CM (complete main)
Format settings, Endianness : Big
Codec ID : A_AC3
Duration : 1 h 31 min
Bit rate mode : Constant
Bit rate : 448 kb/s
Channel(s) : 6 channels
Channel positions : Front: L C R, Side: L R, LFE
Sampling rate : 48.0 kHz
Frame rate : 31.250 FPS (1536 spf)
Bit depth : 16 bits
Compression mode : Lossy
Stream size : 292 MiB (20%)
Title : RUS_L2_Колобок
Language : Russian
Default : Yes
Forced : No
DURATION : 01:31:06.080000000
Text #1
ID : 3
Format : UTF-8
Codec ID : S_TEXT/UTF8
Codec ID/Info : UTF-8 Plain Text
Title : English
Language : English
Default : Yes
Forced : No
DURATION : 01:28:50.206000000
Text #2
ID : 4
Format : UTF-8
Codec ID : S_TEXT/UTF8
Codec ID/Info : UTF-8 Plain Text
Title : English SDH
Language : English
Default : No
Forced : No
DURATION : 01:29:37.010000000
Menu
00:00:00.000 : :1
00:07:37.916 : :2
00:14:10.725 : :3
00:21:43.427 : :4
00:29:14.920 : :5
00:36:17.884 : :6
00:44:29.125 : :7
00:51:45.477 : :8
00:58:39.725 : :9
01:05:38.518 : :10
01:12:28.970 : :11
01:20:16.478 : :12





   Похожие торренты   Торрент   Размер 
В этой теме нет новых непрочитанных сообщений. Жертва / Sacrifice (2016) HDRip-AVC | L2

25 | 3

743.26 МБ

В этой теме нет новых непрочитанных сообщений. Жертва / Sacrifice (2016) HDRip | L2

114 | 0

1.33 ГБ

В этой теме нет новых непрочитанных сообщений. Жертва / Sacrifice (2016) HDRip От Cmert | L1

2 | 0

1.13 ГБ

В этой теме нет новых непрочитанных сообщений. Жертва / Sacrifice (2016) HDRip-AVC от ExKinoRay | L2

6 | 0

1.75 ГБ

В этой теме нет новых непрочитанных сообщений. Жертва / Sacrifice (2016) WEB-DL 720p | L1

405 | 14

2.97 ГБ

В этой теме нет новых непрочитанных сообщений. Жертва / Sacrifice (2016) WEB-DLRip | L1

582 | 23

1.45 ГБ

В этой теме нет новых непрочитанных сообщений. Жертва / Sacrifice (2016) BDRip 720p | L2

12 | 0

3.75 ГБ




Вы не можете начинать темы
Вы не можете отвечать на сообщения
Вы не можете редактировать свои сообщения
Вы не можете удалять свои сообщения
Вы не можете добавлять вложения

Перейти:  
Для Мосгорсуда, Роскомнадзора и рекламодателей: mosgorsud-torrent[собачка]yandex.ru
 Вход
ppkBB3cker v.2 © 2008-2014 @ PPK
[ Time : 0.071s | 16 Queries | GZIP : Off ]

Торрент трекер RUTOR.IN, Не можете зайти на rutor.org? Какой новый адрес рутор? Какое зеркало рутор? Не работает rutor.org и зеркала? Тогда наш торрент специально для вас. Rutor.in неофициальное зеркало rutor. В случае если у Вас заблокирован rutor или вдруг Вы не можете на него зайти, то Вы без труда сможете скачать бесплатно и без рекламы последние новинки кино, игр, сериалов и прочего у нас, на Rutor.in. Не нужно использовать прокси, чтобы зайти на рутор, достаточно воспользоваться нашим ресурсом. Все новые фильмы, игры, сериалы, книги и музыка за 2013 и 2014 годы через торрент бесплатно. Скачивайте фильмы в хорошем качестве, игры для пк, xbox, playstation без регистрации. У нас вы найдете новые Зарубежные сериалы и Русские сериалы 2013, 2014, 2015 годов. Оставайтесь с нами, качайте любимые фильмы, игры, сериалы, книги и музыку.