img image001 image001 image001 image001 image001 image001 image001 image001 image001 image001 image001 image001 image001 image001 image001 image001

Planets Sun Sun Sun
Статистика раздачи
Автор: PriZraK | Размер: 10.03 ГБ | Добавлен: 15 дек 2016
Раздают: 9    Качают: 0
Скачать торрент
Скачать торрент
Описание торрента

СообщениеДобавлено: 15 дек 2016 

Название: Евротур
Оригинальное название: EuroTrip
Год выхода: 2004
Страна: США, Чехия
Студия: DreamWorks, Montecito Picture Company, The, Blue Sea Productions
Продолжительность: 01:31:45
Жанр: комедия
Режиссер: Джефф Шеффер, Алек Берг, Дэвид Мэндел
В ролях: Скотт Мехловиц, Джекоб Питтс, Мишель Трахтенберг, Трэвис Уэстер, Джессика Бёрс, Кристин Крук, Кэти Мейлс, Ниел Исхаков, Мэтт Дэймон, Винни Джонс, ...
Перевод:
- Профессиональный (дублированный) R5
- Профессиональный (многоголосный, закадровый) Мега Видео
- Профессиональный (двуголосый, закадровый) DVDXpert
- Авторский (одноголосый, закадровый) Гаврилов Андрей Юрьевич
- Авторский (одноголосый, закадровый) Строев Денис
- Любительский (одноголосый, закадровый) VO @PD
- Авторский (одноголосый, закадровый) Котов Вячеслав Олегович
- Субтитры
О фильме: Скотт Томас — выпускник местной школы, которому нужна помощь в изучении немецкого языка, и именно для этих целей он знакомится с жителем Германии по имени Майк и начинает с ним дружескую переписку. Причём Скотт абсолютно уверен в том, что Майк — это парень, и делится с ним своими переживаниями и проблемами, которые возникают у него с девушкой. Но в конце концов Скотт узнаёт, что Майк, точнее Мике — это обворожительная блондинка, которой Скотт очень понравился. И теперь он сделает всё, чтобы увидеться с Мике, даже совершит путешествие по Европе…

Кодек: x264
Качество: HDTVRip 1080p
Видео: 1920x1072, 12000 kbps, 23,976 fps
Аудио #1: AC-3, 6 ch, 448 kbps (Rus) - Dub R5
Аудио #2: AC-3, 6 ch, 384 kbps (Rus) - MVO Мега Видео
Аудио #3: AC-3, 6 ch, 448 kbps (Rus) - DVO DVDXpert
Аудио #4: AC-3, 6 ch, 448 kbps (Rus) - AVO Гаврилов Андрей Юрьевич
Аудио #5: AC-3, 6 ch, 448 kbps (Rus) - AVO Строев Денис (de}{ter)
Аудио #6: AC-3, 6 ch, 384 kbps (Rus) - VO @PD
Аудио #7: AC-3, 6 ch, 640 kbps (Rus) - AVO Котов Вячеслав Олегович (mupoxa)
Аудио #8: AC-3, 6 ch, 448 kbps (Eng)
Субтитры: русские, английские
За исходник спасибо - Ruslanski
Дубляж и Котов имеют вставки на расширенные моменты.
Перевод и озвучка Вячеслава Котова доступны благодаря - napaHouk
Можно сравнить с исходником:

x264 [info]: frame I:1129 Avg QP:17.53 size:164979
x264 [info]: frame P:31250 Avg QP:19.89 size:111413
x264 [info]: frame B:99628 Avg QP:22.12 size: 46052
x264 [info]: consecutive B-frames: 2.3% 9.0% 7.2% 17.1% 10.2% 52.7% 1.0% 0.1% 0.0% 0.0% 0.0% 0.1% 0.1%
Общее
Уникальный идентификатор : 182317402359264293604361115776454280189 (0x89290DF100B50D26807B794B4768C3FD)
Полное имя : Евротур (Eurotrip) 2004 HDTVRip 1080p.mkv
Формат : Matroska
Версия формата : Version 2
Размер файла : 10,0 Гбайт
Продолжительность : 1 ч. 31 м.
Общий поток : 15,6 Мбит/сек
Дата кодирования : UTC 2016-12-14 08:27:38
Программа кодирования : mkvmerge v4.0.0 ('The Stars were mine') сборка от Jun 6 2010 16:18:42
Библиотека кодирования : libebml v1.0.0 + libmatroska v1.0.0
Видео
Идентификатор : 1
Формат : AVC
Формат/Информация : Advanced Video Codec
Профиль формата : High@L4.1
Параметр CABAC формата : Да
Параметр ReFrames формата : 4 кадра
Идентификатор кодека : V_MPEG4/ISO/AVC
Продолжительность : 1 ч. 31 м.
Битрейт : 12,0 Мбит/сек
Ширина : 1920 пикселей
Высота : 1072 пикселя
Соотношение сторон : 16:9
Режим частоты кадров : Постоянный
Частота кадров : 23,976 (24000/1001) кадра/сек
Цветовое пространство : YUV
Субдискретизация насыщенности : 4:2:0
Битовая глубина : 8 бит
Тип развёртки : Прогрессивная
Бит/(Пиксели*Кадры) : 0.243
Размер потока : 7,49 Гбайт (75%)
Библиотека кодирования : x264 core 146 r2538 121396c
Настройки программы : cabac=1 / ref=4 / deblock=1:-3:-3 / analyse=0x3:0x133 / me=umh / subme=11 / psy=1 / psy_rd=1.00:0.00 / mixed_ref=1 / me_range=32 / chroma_me=1 / trellis=2 / 8x8dct=1 / cqm=0 / deadzone=21,11 / fast_pskip=0 / chroma_qp_offset=-2 / threads=12 / lookahead_threads=2 / sliced_threads=0 / nr=0 / decimate=0 / interlaced=0 / bluray_compat=0 / constrained_intra=0 / bframes=12 / b_pyramid=2 / b_adapt=2 / b_bias=0 / direct=3 / weightb=1 / open_gop=0 / weightp=2 / keyint=240 / keyint_min=23 / scenecut=40 / intra_refresh=0 / rc=2pass / mbtree=0 / bitrate=12000 / ratetol=1.0 / qcomp=0.60 / qpmin=0 / qpmax=69 / qpstep=4 / cplxblur=20.0 / qblur=0.5 / ip_ratio=1.40 / pb_ratio=1.30 / aq=1:0.80
Язык : English
Default : Нет
Forced : Нет
Аудио #1
Идентификатор : 2
Формат : AC-3
Формат/Информация : Audio Coding 3
Расширение режима : CM (complete main)
Параметр Endianness формата : Big
Идентификатор кодека : A_AC3
Продолжительность : 1 ч. 31 м.
Вид битрейта : Постоянный
Битрейт : 448 Кбит/сек
Каналы : 6 каналов
Расположение каналов : Front: L C R, Side: L R, LFE
Частота : 48,0 КГц
Частота кадров : 31,250 кадров/сек (1536 spf)
Метод сжатия : С потерями
Размер потока : 294 Мбайт (3%)
Заголовок : Dub R5
Язык : Russian
Default : Нет
Forced : Нет
Аудио #2
Идентификатор : 3
Формат : AC-3
Формат/Информация : Audio Coding 3
Расширение режима : CM (complete main)
Параметр Endianness формата : Big
Идентификатор кодека : A_AC3
Продолжительность : 1 ч. 31 м.
Вид битрейта : Постоянный
Битрейт : 384 Кбит/сек
Каналы : 6 каналов
Расположение каналов : Front: L C R, Side: L R, LFE
Частота : 48,0 КГц
Частота кадров : 31,250 кадров/сек (1536 spf)
Метод сжатия : С потерями
Размер потока : 252 Мбайт (2%)
Заголовок : MVO Мега Видео
Язык : Russian
Default : Нет
Forced : Нет
Аудио #3
Идентификатор : 4
Формат : AC-3
Формат/Информация : Audio Coding 3
Расширение режима : CM (complete main)
Параметр Endianness формата : Big
Идентификатор кодека : A_AC3
Продолжительность : 1 ч. 31 м.
Вид битрейта : Постоянный
Битрейт : 448 Кбит/сек
Каналы : 6 каналов
Расположение каналов : Front: L C R, Side: L R, LFE
Частота : 48,0 КГц
Частота кадров : 31,250 кадров/сек (1536 spf)
Метод сжатия : С потерями
Размер потока : 294 Мбайт (3%)
Заголовок : DVO DVDXpert
Язык : Russian
Default : Нет
Forced : Нет
Аудио #4
Идентификатор : 5
Формат : AC-3
Формат/Информация : Audio Coding 3
Расширение режима : CM (complete main)
Параметр Endianness формата : Big
Идентификатор кодека : A_AC3
Продолжительность : 1 ч. 31 м.
Вид битрейта : Постоянный
Битрейт : 448 Кбит/сек
Каналы : 6 каналов
Расположение каналов : Front: L C R, Side: L R, LFE
Частота : 48,0 КГц
Частота кадров : 31,250 кадров/сек (1536 spf)
Метод сжатия : С потерями
Размер потока : 294 Мбайт (3%)
Заголовок : AVO Гаврилов Андрей Юрьевич
Язык : Russian
Default : Нет
Forced : Нет
Аудио #5
Идентификатор : 6
Формат : AC-3
Формат/Информация : Audio Coding 3
Расширение режима : CM (complete main)
Параметр Endianness формата : Big
Идентификатор кодека : A_AC3
Продолжительность : 1 ч. 31 м.
Вид битрейта : Постоянный
Битрейт : 448 Кбит/сек
Каналы : 6 каналов
Расположение каналов : Front: L C R, Side: L R, LFE
Частота : 48,0 КГц
Частота кадров : 31,250 кадров/сек (1536 spf)
Метод сжатия : С потерями
Размер потока : 294 Мбайт (3%)
Заголовок : AVO Строев Денис (de}{ter)
Язык : Russian
Default : Нет
Forced : Нет
Аудио #6
Идентификатор : 7
Формат : AC-3
Формат/Информация : Audio Coding 3
Расширение режима : CM (complete main)
Параметр Endianness формата : Big
Идентификатор кодека : A_AC3
Продолжительность : 1 ч. 31 м.
Вид битрейта : Постоянный
Битрейт : 384 Кбит/сек
Каналы : 6 каналов
Расположение каналов : Front: L C R, Side: L R, LFE
Частота : 48,0 КГц
Частота кадров : 31,250 кадров/сек (1536 spf)
Метод сжатия : С потерями
Размер потока : 252 Мбайт (2%)
Заголовок : VO @PD
Язык : Russian
Default : Нет
Forced : Нет
Аудио #7
Идентификатор : 8
Формат : AC-3
Формат/Информация : Audio Coding 3
Расширение режима : CM (complete main)
Параметр Endianness формата : Big
Идентификатор кодека : A_AC3
Продолжительность : 1 ч. 31 м.
Вид битрейта : Постоянный
Битрейт : 640 Кбит/сек
Каналы : 6 каналов
Расположение каналов : Front: L C R, Side: L R, LFE
Частота : 48,0 КГц
Частота кадров : 31,250 кадров/сек (1536 spf)
Метод сжатия : С потерями
Размер потока : 420 Мбайт (4%)
Заголовок : AVO Котов Вячеслав Олегович (mupoxa)
Язык : Russian
Default : Нет
Forced : Нет
Аудио #8
Идентификатор : 9
Формат : AC-3
Формат/Информация : Audio Coding 3
Расширение режима : CM (complete main)
Параметр Endianness формата : Big
Идентификатор кодека : A_AC3
Продолжительность : 1 ч. 31 м.
Вид битрейта : Постоянный
Битрейт : 448 Кбит/сек
Каналы : 6 каналов
Расположение каналов : Front: L C R, Side: L R, LFE
Частота : 48,0 КГц
Частота кадров : 31,250 кадров/сек (1536 spf)
Метод сжатия : С потерями
Размер потока : 294 Мбайт (3%)
Язык : English
Default : Нет
Forced : Нет
Текст #1
Идентификатор : 10
Формат : UTF-8
Идентификатор кодека : S_TEXT/UTF8
Идентификатор кодека/Информация : UTF-8 Plain Text
Заголовок : Forced
Язык : Russian
Default : Нет
Forced : Нет
Текст #2
Идентификатор : 11
Формат : UTF-8
Идентификатор кодека : S_TEXT/UTF8
Идентификатор кодека/Информация : UTF-8 Plain Text
Язык : Russian
Default : Нет
Forced : Нет
Текст #3
Идентификатор : 12
Формат : UTF-8
Идентификатор кодека : S_TEXT/UTF8
Идентификатор кодека/Информация : UTF-8 Plain Text
Язык : English
Default : Нет
Forced : Нет





   Похожие торренты   Торрент   Размер 
В этой теме нет новых непрочитанных сообщений. Евротур / Eurotrip (2004) HDTVRip-AVC | D, P2, A | Unrated

611 | 20

2.18 ГБ

В этой теме нет новых непрочитанных сообщений. Евротур / Eurotrip (2004) HDTVRip 720p | Расширенная версия / Unrated

121 | 11

5.64 ГБ

В этой теме нет новых непрочитанных сообщений. Евротур / Eurotrip (2004) HDTV 1080i | Unrated Version

69 | 10

10.25 ГБ

В этой теме нет новых непрочитанных сообщений. Евротур / Eurotrip (2004) BDRemux 1080p | D

13 | 0

14.38 ГБ

В этой теме нет новых непрочитанных сообщений. Евротур / EuroTrip (2004) DVDRip-AVC

113 | 14

2.04 ГБ

В этой теме нет новых непрочитанных сообщений. Евротур / EuroTrip (2004) DVDRip

93 | 4

690.41 МБ

В этой теме нет новых непрочитанных сообщений. Евротур / EuroTrip (2004) BDRip от MediaClub | КПК

64 | 4

578 МБ




Вы не можете начинать темы
Вы не можете отвечать на сообщения
Вы не можете редактировать свои сообщения
Вы не можете удалять свои сообщения
Вы не можете добавлять вложения

Перейти:  
 Вход
ppkBB3cker v.2 © 2008-2014 @ PPK
[ Time : 0.041s | 18 Queries | GZIP : Off ]

cron