img image001 image001 image001 image001 image001 image001 image001 image001 image001 image001 image001 image001 image001 image001 image001

Planets Sun Sun Sun

COVID-19 - Последняя информация о коронавирусе на сайте Минздрава


Статистика раздачи
Автор: PriZraK | Размер: 7.75 ГБ | Добавлен: 16 дек 2016
Раздают: 5    Качают: 1
Скачать торрент
Скачать торрент
Описание торрента

СообщениеДобавлено: 16 дек 2016 


Информация о фильме
    Русское название: 40 дней и 40 ночей
    Оригинальное название: 40 Days and 40 Nights
    Год выхода: 2002
    Жанр: мелодрама, комедия
    Режиссер: Майкл Леманн
    Выпущено: США, Великобритания, Франция
    Продолжительность: 01:35:26
    Перевод: Дублированный
    В ролях: Джош Хартнетт, Шаннин Соссамон, Паоло Костанзо, Адам Трези, Эммануэль Вожье, Лорин Хит, Аарон Трэйнор, Гленн Фицджералд, Монит Мазур, Кристин Шателейн


Сюжет фильма
    Последние длительные отношения с любимой девушкой у Мэтта Салливана закончились его разбитым сердцем, и он зарекается никогда подобного не делать. Его дружок Лент, зная, что Мэтт никогда не доводит дел до конца, спорит с ним, что все это полная туфта, и долго он не выдержит.
    Никакого секса. Вообще. В течение 40 суток. Никаких ласк. Никаких поцелуев. Никакого самоудовлетворения. Ничего…. Поначалу у Мэтта все получается, пока… Пока он не встретил девушку своей мечты. Теперь, придерживаясь правил пари, будет очень трудно завоевать сердце девушки…


Файл
    Качество: BDRip 1080p (исходник Blu-Ray Disc)
    Формат: MKV
    Видео: 1920x1040, 10356 Кбит/сек, 23,976 кадр/сек, AVC, x264, High@L4.1, 1.85:1, 0.216 Бит/[Пиксели*Кадры]
    Аудио 1: AC-3, 640 Кбит/сек, 6 канала(ов), 48,0 КГц - Дублированный / Русский
    Аудио 2: AC-3, 640 Кбит/сек, 6 канала(ов), 48,0 КГц - Оригинал / Английский
    Субтитры: Русские | Полные, Английские | Полные
    Форсированные субтитры: Русские
    Чаптеры (Главы): Есть



Автор Рипа: Группа:



Format : Matroska
Format version : Version 2
File size : 7.75 GiB
Duration : 1 h 35 min
Overall bit rate : 11.6 Mb/s
Movie name : 40 Days and 40 Nights.(2002).BDRip.1080p.[envy]
Encoded date : UTC 2016-12-16 09:21:25
Writing application : mkvmerge v5.8.0 ('No Sleep / Pillow') built on Sep 2 2012 15:37:04
Writing library : libebml v1.2.3 + libmatroska v1.3.0
Video
ID : 1
Format : AVC
Format/Info : Advanced Video Codec
Format profile : High@L4.1
Format settings, CABAC : Yes
Format settings, ReFrames : 4 frames
Codec ID : V_MPEG4/ISO/AVC
Duration : 1 h 35 min
Bit rate : 10.4 Mb/s
Width : 1 920 pixels
Height : 1 040 pixels
Display aspect ratio : 1.85:1
Frame rate mode : Constant
Frame rate : 23.976 (24000/1001) FPS
Color space : YUV
Chroma subsampling : 4:2:0
Bit depth : 8 bits
Scan type : Progressive
Bits/(Pixel*Frame) : 0.216
Stream size : 6.74 GiB (87%)
Title : 40 Days and 40 Nights.(2002).BDRip.1080p.[envy]
Writing library : x264 core 148 r2744 b97ae06
Encoding settings : cabac=1 / ref=4 / deblock=1:-3:-3 / analyse=0x3:0x133 / me=umh / subme=11 / psy=1 / psy_rd=1.00:0.00 / mixed_ref=1 / me_range=32 / chroma_me=1 / trellis=2 / 8x8dct=1 / cqm=0 / deadzone=21,11 / fast_pskip=0 / chroma_qp_offset=-2 / threads=12 / lookahead_threads=1 / sliced_threads=0 / nr=0 / decimate=1 / interlaced=0 / bluray_compat=0 / constrained_intra=0 / bframes=5 / b_pyramid=2 / b_adapt=2 / b_bias=0 / direct=3 / weightb=1 / open_gop=0 / weightp=2 / keyint=240 / keyint_min=23 / scenecut=40 / intra_refresh=0 / rc=2pass / mbtree=0 / bitrate=10356 / ratetol=2.0 / qcomp=0.60 / qpmin=0 / qpmax=69 / qpstep=4 / cplxblur=20.0 / qblur=0.5 / ip_ratio=1.40 / pb_ratio=1.30 / aq=2:0.70
Language : English
Default : Yes
Forced : No
Audio #1
ID : 2
Format : AC-3
Format/Info : Audio Coding 3
Mode extension : CM (complete main)
Format settings, Endianness : Big
Codec ID : A_AC3
Duration : 1 h 35 min
Bit rate mode : Constant
Bit rate : 640 kb/s
Channel(s) : 6 channels
Channel positions : Front: L C R, Side: L R, LFE
Sampling rate : 48.0 kHz
Frame rate : 31.250 FPS (1536 spf)
Compression mode : Lossy
Stream size : 437 MiB (6%)
Title : Dub
Language : Russian
Default : Yes
Forced : No
Audio #2
ID : 3
Format : AC-3
Format/Info : Audio Coding 3
Mode extension : CM (complete main)
Format settings, Endianness : Big
Codec ID : A_AC3
Duration : 1 h 35 min
Bit rate mode : Constant
Bit rate : 640 kb/s
Channel(s) : 6 channels
Channel positions : Front: L C R, Side: L R, LFE
Sampling rate : 48.0 kHz
Frame rate : 31.250 FPS (1536 spf)
Compression mode : Lossy
Stream size : 437 MiB (6%)
Title : Eng
Language : English
Default : No
Forced : No
Text #1
ID : 4
Format : UTF-8
Codec ID : S_TEXT/UTF8
Codec ID/Info : UTF-8 Plain Text
Title : Rus forced
Language : Russian
Default : Yes
Forced : Yes
Text #2
ID : 5
Format : UTF-8
Codec ID : S_TEXT/UTF8
Codec ID/Info : UTF-8 Plain Text
Title : Rus full
Language : Russian
Default : No
Forced : No
Text #3
ID : 6
Format : UTF-8
Codec ID : S_TEXT/UTF8
Codec ID/Info : UTF-8 Plain Text
Title : Eng full
Language : English
Default : No
Forced : No
Menu
00:00:00.000 : :Chapter 01
00:06:58.334 : :Chapter 02
00:15:03.569 : :Chapter 03
00:22:56.875 : :Chapter 04
00:30:20.568 : :Chapter 05
00:37:41.050 : :Chapter 06
00:44:38.967 : :Chapter 07
00:52:40.323 : :Chapter 08
00:59:31.442 : :Chapter 09
01:09:30.249 : :Chapter 10
01:14:32.718 : :Chapter 11
01:24:25.226 : :Chapter 12


   Похожие торренты   Торрент   Размер 
В этой теме нет новых непрочитанных сообщений. Шесть дней, семь ночей / Six Days Seven Nights (1998) DVDRip | D

101 | 16

1.37 ГБ

В этой теме нет новых непрочитанных сообщений. Шесть дней, семь ночей / Six Days Seven Nights (1998) WEBRip-AVC | D, P, A

7 | 1

2.92 ГБ

В этой теме нет новых непрочитанных сообщений. Шесть дней, семь ночей / Six Days Seven Nights (1998) WEB-DLRip 720p от KORSAR | D, P, A

13 | 0

5.05 ГБ

В этой теме нет новых непрочитанных сообщений. Ночи в стиле буги / Boogie Nights (1997) BDRip 1080p от NNNB | P

5 | 3

15.53 ГБ

В этой теме нет новых непрочитанных сообщений. Любовь, сбивающая с ног / Punch-Drunk Love (2002) BDRip 1080p от NNNB | P2

7 | 1

11.2 ГБ

В этой теме нет новых непрочитанных сообщений. IMAX. Космическая станция / IMAX. Space Station (2002) BDRip 1080p от NNNB | A

1 | 0

4.37 ГБ

В этой теме нет новых непрочитанных сообщений. Властелин колец: Две крепости / The Lord of the Rings: The Two Towers (2002) BDRip 720p от NNNB | 60 fps | Театральная версия | D

69 | 7

7.01 ГБ




Вы не можете начинать темы
Вы не можете отвечать на сообщения
Вы не можете редактировать свои сообщения
Вы не можете удалять свои сообщения
Вы не можете добавлять вложения

Перейти:  
Контактная информация: rstracker[пёсик]yandex.ru
 Вход
ppkBB3cker v.2 © 2008-2014 @ PPK
[ Time : 0.021s | 18 Queries | GZIP : Off ]

cron