img image001 image001 image001 image001 image001 image001 image001 image001 image001 image001 image001 image001 image001 image001 image001 image001

Planets Sun Sun Sun
Статистика раздачи
Автор: PriZraK | Размер: 9.43 ГБ | Добавлен: 18 дек 2016
Раздают: 0    Качают: 0
Скачать торрент
Скачать торрент
Описание торрента

СообщениеДобавлено: 18 дек 2016 


Информация о фильме
Название: Эрнест спасает Рождество
Оригинальное название: Ernest Saves Christmas
Год выхода: 1988
Жанр: фэнтези, комедия, семейный
Режиссер: Джон Р. Черри III / John R. Cherry III
В ролях: Джим Вэрни, Дуглас Сил, Оливер Кларк, Ноэль Паркер, Гейлард Сартейн, Билли Бёрд, Роберт Лессер, Ки Ховард, Джек Суонсон, Линдси Элли, Том Новиски, Джон Фреда
О фильме: Санта-Клаус заболел, улегся в постель и теперь не может ездить на своей волшебной оленьей упряжке, раздавать подарки и выполнять желания. Если ему не найдут замену, Рождества не будет. И Новый год не придет никогда. Помочь Санте и всему миру может только один человек — неуклюжий и добрый Эрнест.

Страна: США
Студия: Silver Screen Partners IV, Touchstone Pictures
Продолжительность: 01:31:30
Перевод: Авторский (одноголосый закадровый) - А.Михалев
Cубтитры : Английский
Контейнер: MKV
Качество: WEBRip 1080p
Видео: MPEG-4 AVC, High@L4, 14.0 Mb/s, 1 920 x 1 040, 23.976 fps
Аудио1 : Русский (AC3, 2ch, 192 kb/s, 48.0 KHz) AVO
Аудио2 : Английский (AC3 2ch, 224 kb/s, 48.0 KHz)
Субтитры : English SRT
Навигация по главам: нет
Глобальные тэги: есть
Общее
Уникальный идентификатор : 235051524352149758189532293725822367012 (0xB0D546E4625E237393C73D0D4363B524)
Полное имя : E:Эрнест спасает Рождество Ernest Saves Christmas (1988).mkv
Формат : Matroska
Версия формата : Version 4 / Version 2
Размер файла : 9,43 Гбайт
Продолжительность : 1 ч. 31 м.
Режим общего битрейта : Переменный
Общий поток : 14,8 Мбит/сек
Название фильма : Ernest Saves Christmas
Тип содержимого : Movie
Описание : A Holiday Comedy Unlike Any Other!
Дата выпуска : 1988-11-11
Дата кодирования : UTC 2016-12-18 08:45:12
Программа кодирования : mkvmerge v9.6.0 ('Slave To Your Mind') 64bit
Библиотека кодирования : libebml v1.3.4 + libmatroska v1.4.5
Обложка : Yes
Attachments : cover.jpg
ACTOR : Jim Varney, Douglas Seale, Noelle Parker, Gailard Sartain, Bill Byrge, Billie Bird, Oliver Clark
ARTIST : Jim Varney, Douglas Seale, Noelle Parker, Gailard Sartain, Bill Byrge, Billie Bird, Oliver Clark
DIRECTOR : Джон Р. Черри III
GENRE : Comedy, Family
LAW_RATING : PG
PRODUCER : Даг Клейборн, Стэйси Уильямс, Джозеф Акерман мл
PRODUCTION_STUDIO : Touchstone Pictures
SCREENPLAY_BY : Эд Тернер, Б. Кляйн
SUMMARY : A Holiday Comedy Unlike Any Other!
SYNOPSIS : When Santa Claus decides to retire and pass on his magic bag of Christmas surprises to a new Saint Nick, he enlists the aid of a hilarious assortment of characters. A perky teen runaway and hapless taxi driver Ernest P. Worrell must convince a skeptical kiddie-show host to take over the post of Father Christmas.
Видео
Идентификатор : 1
Формат : AVC
Формат/Информация : Advanced Video Codec
Профиль формата : High@L4
Параметр CABAC формата : Да
Параметр ReFrames формата : 4 кадра
Идентификатор кодека : V_MPEG4/ISO/AVC
Продолжительность : 1 ч. 31 м.
Вид битрейта : Переменный
Битрейт : 14,3 Мбит/сек
Максимальный битрейт : 15,0 Мбит/сек
Ширина : 1920 пикселей
Высота : 1040 пикселей
Соотношение сторон : 1,85:1
Режим частоты кадров : Постоянный
Частота кадров : 23,976 (24000/1001) кадра/сек
Цветовое пространство : YUV
Субдискретизация насыщенности : 4:2:0
Битовая глубина : 8 бит
Тип развёртки : Прогрессивная
Бит/(Пиксели*Кадры) : 0.299
Размер потока : 9,16 Гбайт (97%)
Библиотека кодирования : x264 core 148 r2623 d5b2374
Настройки программы : cabac=1 / ref=4 / deblock=1:-1:-1 / analyse=0x3:0x133 / me=umh / subme=9 / psy=1 / psy_rd=1.00:0.15 / mixed_ref=1 / me_range=24 / chroma_me=1 / trellis=2 / 8x8dct=1 / cqm=0 / deadzone=21,11 / fast_pskip=1 / chroma_qp_offset=-3 / threads=32 / lookahead_threads=5 / sliced_threads=0 / nr=150 / decimate=1 / interlaced=0 / bluray_compat=0 / constrained_intra=0 / bframes=8 / b_pyramid=2 / b_adapt=2 / b_bias=0 / direct=3 / weightb=1 / open_gop=0 / weightp=2 / keyint=120 / keyint_min=61 / scenecut=0 / intra_refresh=0 / rc_lookahead=120 / rc=crf / mbtree=1 / crf=18.0 / qcomp=0.60 / qpmin=0 / qpmax=69 / qpstep=4 / vbv_maxrate=15000 / vbv_bufsize=31250 / crf_max=0.0 / nal_hrd=vbr / filler=0 / ip_ratio=1.40 / aq=3:1.00
Default : Да
Forced : Нет
Цветовой диапазон : Limited
Основные цвета : BT.709
Характеристики трансфера : BT.709
Коэффициенты матрицы : BT.709
Аудио #1
Идентификатор : 2
Формат : AC-3
Формат/Информация : Audio Coding 3
Расширение режима : CM (complete main)
Параметр Endianness формата : Big
Идентификатор кодека : A_AC3
Продолжительность : 1 ч. 31 м.
Вид битрейта : Постоянный
Битрейт : 192 Кбит/сек
Каналы : 2 канала
Расположение каналов : Front: L R
Частота : 48,0 КГц
Частота кадров : 31,250 кадров/сек (1536 spf)
Битовая глубина : 16 бит
Метод сжатия : С потерями
Размер потока : 126 Мбайт (1%)
Заголовок : AVO (А.Михалев)
Язык : Russian
Default : Да
Forced : Нет
Аудио #2
Идентификатор : 3
Формат : E-AC-3
Формат/Информация : Enhanced Audio Coding 3
Параметр Endianness формата : Big
Идентификатор кодека : A_EAC3
Продолжительность : 1 ч. 31 м.
Вид битрейта : Постоянный
Битрейт : 224 Кбит/сек
Каналы : 2 канала
Расположение каналов : Front: L R
Частота : 48,0 КГц
Частота кадров : 187,500 кадров/сек (256 spf)
Метод сжатия : С потерями
Размер потока : 147 Мбайт (2%)
Язык : English
Default : Нет
Forced : Нет
Текст
Идентификатор : 4
Формат : UTF-8
Идентификатор кодека : S_TEXT/UTF8
Идентификатор кодека/Информация : UTF-8 Plain Text
Продолжительность : 1 ч. 27 м.
Битрейт : 72 бит/сек
Count of elements : 1661
Размер потока : 46,4 Кбайт (0%)
Заголовок : SRT
Default : Нет
Forced : Нет



   Похожие торренты   Торрент   Размер 
В этой теме нет новых непрочитанных сообщений. Эрнест спасает Рождество / Ernest Saves Christmas (1988) DVDRip

166 | 2

749.24 МБ

В этой теме нет новых непрочитанных сообщений. Котёнок Феликс спасает Рождество / Felix the Cat Saves Christmas (2004) DVD5 от Youtracker | P2 | Лицензия

0 | 2

3.47 ГБ

В этой теме нет новых непрочитанных сообщений. Кот Феликс спасает рождество / Котенок Феликс спасает Рождество / Miracle in Toyland (2004) DVDRip от KinoRay & Sheikn | P2

120 | 24

1.3 ГБ

В этой теме нет новых непрочитанных сообщений. Эрнест и Селестина: Приключения мышки и медведя / Ernest et Célestine (2012) BDRip 1080p

230 | 14

2.19 ГБ

В этой теме нет новых непрочитанных сообщений. Эрнест и Селестина: Приключения мышки и медведя / Ernest et Celestine (2012) BDRip 1080p от R.G.GoldenShara

20 | 8

4.37 ГБ

В этой теме нет новых непрочитанных сообщений. Билл Най спасает мир / Bill Nye Saves the World [01x01-06 из 13] (2017) HDTVRip 720p | Sunshine Studio

17 | 10

4.01 ГБ

В этой теме нет новых непрочитанных сообщений. Билл Най спасает мир / Bill Nye Saves the World [01x01-06 из 13] (2017) HDTVRip 720p | Sunshine Studio

0 | 0

5.71 ГБ




Вы не можете начинать темы
Вы не можете отвечать на сообщения
Вы не можете редактировать свои сообщения
Вы не можете удалять свои сообщения
Вы не можете добавлять вложения

Перейти:  
 Вход
ppkBB3cker v.2 © 2008-2014 @ PPK
[ Time : 0.044s | 15 Queries | GZIP : Off ]

cron