img image001 image001 image001 image001 image001 image001 image001 image001 image001 image001 image001 image001 image001 image001 image001 image001

Planets Sun Sun Sun
Статистика раздачи
Автор: PriZraK | Размер: 11.68 ГБ | Добавлен: 19 дек 2016
Раздают: 0    Качают: 0
Скачать торрент
Скачать торрент
Описание торрента

СообщениеДобавлено: 19 дек 2016 

Кроваво-красное / Profondo rosso

«Flesh Ripped clean to the Bone... And the Blood runs Red...»

Русское название: Кроваво-красное
Оригинальное название: Profondo rosso
Год выпуска: 1975
Жанр: ужасы, триллер, детектив
Выпущено: Италия
Режиссер: Дарио Ардженто
В ролях: Дэвид Хеммингс , Дария Николоди , Габриэле Лавиа , Маша Мериль , Эрос Паньи , Джулиана Каландра , Пьеро Маццинги , Глауцо Маури , Клара Каламаи , Альдо Бонамано , Лиана Дель Бальцо , Витторио Фанфони
Перевод: Профессиональный многоголосый, Авторский одноголосый

Сюжет фильма:
Во время лекции на конгрессе парапсихологии женщина, читавшая лекцию и угадывавшая имена присутствующих в зале и что у них в кармане, забилась в припадке, утверждая, что в зале смерть, что она видит ужасное убийство на вилле, что она слышит детскую песенку. И в ту же ночь ее зверски зарезал огромным тесаком человек в плаще, которого видел джазовый пианист. Невольно пианист втягивается в эту историю и начинает свое собственное расследование.

Качество: BDRip 720p
Формат: AVC (библиотека кодирования x.264)
Контейнер (Расширение): MKV
Видео: 1280x544, 10171 Кбит/сек, 23,976 кадр/сек, 0,609 Бит/[Пиксели*Кадры]
Аудио №1: русский / AC3 / 5.1 / 48 kHz / 384 kbps / |Профессиональный многоголосый, R5 Синема Престиж|
Аудио №2: русский / AC3 / 2.0 / 48 kHz / 192 kbps / |Профессиональный многоголосый, Твин|
Аудио №3: русский / AC3 / 5.1 / 48 kHz / 640 kbps / |Авторский одноголосый, Андрей Гаврилов|
Аудио №4: русский / AC3 / 2.0 / 48 kHz / 192 kbps / |Авторский одноголосый, Андрей Мудров|
Аудио №5: русский / AC3 / 2.0 / 48 kHz / 192 kbps / |Авторский одноголосый, Антон Алексеев|
Аудио №6: русский / AC3 / 2.0 / 48 kHz / 192 kbps / |Авторский одноголосый, Константин Дьяконов|
Аудио №7: русский / AC3 / 2.0 / 48 kHz / 192 kbps / |Авторский одноголосый, Леонид Володарский|
Аудио №8: русский / AC3 / 2.0 / 48 kHz / 192 kbps / |Авторский одноголосый, Unknown|
Аудио №9: Italian / AC3 / 5.1 / 48 kHz / 640 kbps /
Аудио №10: английский / AC3 / 2.0 / 48 kHz / 224 kbps /
Субтитры: русские (R5), английские
Навигация по главам(Чаптеры): есть
Продолжительность: 02:06:34
Автор рипа: Группа:

Format : Matroska
Format version : Version 2
File size : 11.7 GiB
Duration : 2 h 6 min
Overall bit rate : 13.2 Mb/s
Movie name : Deep.Red.1975.720p.BDRip.720p.[denis100]
Encoded date : UTC 2016-12-19 08:35:10
Writing application : mkvmerge v5.8.0 ('No Sleep / Pillow') built on Sep 2 2012 15:37:04
Writing library : libebml v1.2.3 + libmatroska v1.3.0
Video
ID : 1
Format : AVC
Format/Info : Advanced Video Codec
Format profile : High@L4.1
Format settings, CABAC : Yes
Format settings, ReFrames : 11 frames
Codec ID : V_MPEG4/ISO/AVC
Duration : 2 h 6 min
Bit rate : 10.2 Mb/s
Width : 1 280 pixels
Height : 544 pixels
Display aspect ratio : 2.35:1
Frame rate mode : Constant
Frame rate : 23.976 (24000/1001) FPS
Color space : YUV
Chroma subsampling : 4:2:0
Bit depth : 8 bits
Scan type : Progressive
Bits/(Pixel*Frame) : 0.609
Stream size : 8.76 GiB (75%)
Title : Deep.Red.1975.720p.BDRip.720p.[denis100]
Writing library : x264 core 148 r2744 b97ae06
Encoding settings : cabac=1 / ref=11 / deblock=1:-3:-3 / analyse=0x3:0x133 / me=umh / subme=11 / psy=1 / psy_rd=1.00:0.15 / mixed_ref=1 / me_range=32 / chroma_me=1 / trellis=2 / 8x8dct=1 / cqm=0 / deadzone=21,11 / fast_pskip=0 / chroma_qp_offset=-3 / threads=6 / lookahead_threads=1 / sliced_threads=0 / nr=0 / decimate=1 / interlaced=0 / bluray_compat=0 / constrained_intra=0 / bframes=12 / b_pyramid=2 / b_adapt=2 / b_bias=0 / direct=3 / weightb=1 / open_gop=0 / weightp=2 / keyint=240 / keyint_min=23 / scenecut=40 / intra_refresh=0 / rc=2pass / mbtree=0 / bitrate=10171 / ratetol=1.0 / qcomp=0.60 / qpmin=0 / qpmax=69 / qpstep=4 / cplxblur=20.0 / qblur=0.5 / ip_ratio=1.40 / pb_ratio=1.30 / aq=1:0.75
Language : English
Default : Yes
Forced : No
Audio #1
ID : 2
Format : AC-3
Format/Info : Audio Coding 3
Mode extension : CM (complete main)
Format settings, Endianness : Big
Codec ID : A_AC3
Duration : 2 h 6 min
Bit rate mode : Constant
Bit rate : 384 kb/s
Channel(s) : 6 channels
Channel positions : Front: L C R, Side: L R, LFE
Sampling rate : 48.0 kHz
Frame rate : 31.250 FPS (1536 spf)
Compression mode : Lossy
Stream size : 348 MiB (3%)
Title : R5 Синема Престиж
Language : Russian
Default : Yes
Forced : No
Audio #2
ID : 3
Format : AC-3
Format/Info : Audio Coding 3
Mode extension : CM (complete main)
Format settings, Endianness : Big
Codec ID : A_AC3
Duration : 2 h 6 min
Bit rate mode : Constant
Bit rate : 192 kb/s
Channel(s) : 2 channels
Channel positions : Front: L R
Sampling rate : 48.0 kHz
Frame rate : 31.250 FPS (1536 spf)
Compression mode : Lossy
Stream size : 174 MiB (1%)
Title : Твин
Language : Russian
Default : No
Forced : No
Audio #3
ID : 4
Format : AC-3
Format/Info : Audio Coding 3
Mode extension : CM (complete main)
Format settings, Endianness : Big
Codec ID : A_AC3
Duration : 2 h 6 min
Bit rate mode : Constant
Bit rate : 640 kb/s
Channel(s) : 6 channels
Channel positions : Front: L C R, Side: L R, LFE
Sampling rate : 48.0 kHz
Frame rate : 31.250 FPS (1536 spf)
Compression mode : Lossy
Stream size : 579 MiB (5%)
Title : AVO, Андрей Гаврилов
Language : Russian
Default : No
Forced : No
Audio #4
ID : 5
Format : AC-3
Format/Info : Audio Coding 3
Mode extension : CM (complete main)
Format settings, Endianness : Big
Codec ID : A_AC3
Duration : 2 h 6 min
Bit rate mode : Constant
Bit rate : 192 kb/s
Channel(s) : 2 channels
Channel positions : Front: L R
Sampling rate : 48.0 kHz
Frame rate : 31.250 FPS (1536 spf)
Compression mode : Lossy
Stream size : 174 MiB (1%)
Title : AVO, Андрей Мудров
Language : Russian
Default : No
Forced : No
Audio #5
ID : 6
Format : AC-3
Format/Info : Audio Coding 3
Mode extension : CM (complete main)
Format settings, Endianness : Big
Codec ID : A_AC3
Duration : 2 h 6 min
Bit rate mode : Constant
Bit rate : 192 kb/s
Channel(s) : 2 channels
Channel positions : Front: L R
Sampling rate : 48.0 kHz
Frame rate : 31.250 FPS (1536 spf)
Compression mode : Lossy
Stream size : 174 MiB (1%)
Title : AVO, Антон Алексеев
Language : Russian
Default : No
Forced : No
Audio #6
ID : 7
Format : AC-3
Format/Info : Audio Coding 3
Mode extension : CM (complete main)
Format settings, Endianness : Big
Codec ID : A_AC3
Duration : 2 h 6 min
Bit rate mode : Constant
Bit rate : 192 kb/s
Channel(s) : 2 channels
Channel positions : Front: L R
Sampling rate : 48.0 kHz
Frame rate : 31.250 FPS (1536 spf)
Compression mode : Lossy
Stream size : 174 MiB (1%)
Title : AVO, Константин Дьяконов
Language : Russian
Default : No
Forced : No
Audio #7
ID : 8
Format : AC-3
Format/Info : Audio Coding 3
Mode extension : CM (complete main)
Format settings, Endianness : Big
Codec ID : A_AC3
Duration : 2 h 6 min
Bit rate mode : Constant
Bit rate : 192 kb/s
Channel(s) : 2 channels
Channel positions : Front: L R
Sampling rate : 48.0 kHz
Frame rate : 31.250 FPS (1536 spf)
Compression mode : Lossy
Stream size : 174 MiB (1%)
Title : AVO, Леонид Володарский
Language : Russian
Default : No
Forced : No
Audio #8
ID : 9
Format : AC-3
Format/Info : Audio Coding 3
Mode extension : CM (complete main)
Format settings, Endianness : Big
Codec ID : A_AC3
Duration : 2 h 6 min
Bit rate mode : Constant
Bit rate : 192 kb/s
Channel(s) : 2 channels
Channel positions : Front: L R
Sampling rate : 48.0 kHz
Frame rate : 31.250 FPS (1536 spf)
Compression mode : Lossy
Stream size : 174 MiB (1%)
Title : AVO, unknown
Language : Russian
Default : No
Forced : No
Audio #9
ID : 10
Format : AC-3
Format/Info : Audio Coding 3
Mode extension : CM (complete main)
Format settings, Endianness : Big
Codec ID : A_AC3
Duration : 2 h 6 min
Bit rate mode : Constant
Bit rate : 640 kb/s
Channel(s) : 6 channels
Channel positions : Front: L C R, Side: L R, LFE
Sampling rate : 48.0 kHz
Frame rate : 31.250 FPS (1536 spf)
Compression mode : Lossy
Stream size : 579 MiB (5%)
Language : Italian
Default : No
Forced : No
Audio #10
ID : 11
Format : AC-3
Format/Info : Audio Coding 3
Mode extension : CM (complete main)
Format settings, Endianness : Big
Codec ID : A_AC3
Duration : 2 h 6 min
Bit rate mode : Constant
Bit rate : 224 kb/s
Channel(s) : 2 channels
Channel positions : Front: L R
Sampling rate : 48.0 kHz
Frame rate : 31.250 FPS (1536 spf)
Compression mode : Lossy
Stream size : 203 MiB (2%)
Title : english
Language : English
Default : No
Forced : No
Text #1
ID : 12
Format : UTF-8
Codec ID : S_TEXT/UTF8
Codec ID/Info : UTF-8 Plain Text
Title : R5
Language : Russian
Default : No
Forced : No
Text #2
ID : 13
Format : UTF-8
Codec ID : S_TEXT/UTF8
Codec ID/Info : UTF-8 Plain Text
Language : English
Default : No
Forced : No
Menu
00:00:00.000 : en:00:00:00.000
00:10:41.140 : en:00:10:41.140
00:21:14.690 : en:00:21:14.690
00:31:08.533 : en:00:31:08.533
00:39:58.938 : en:00:39:58.938
00:52:54.004 : en:00:52:54.004
01:05:27.340 : en:01:05:27.340
01:13:39.040 : en:01:13:39.040
01:20:57.394 : en:01:20:57.394
01:33:48.289 : en:01:33:48.289
01:52:17.189 : en:01:52:17.189
02:04:42.141 : en:02:04:42.141



   Похожие торренты   Торрент   Размер 
В этой теме нет новых непрочитанных сообщений. Кроваво-красное / Profondo rosso (1975) BDRip 720p от NovaLan

1 | 5

10.44 ГБ

В этой теме нет новых непрочитанных сообщений. Попутчик: Начало, или Кровавый автостоп / Autostop rosso sangue / Hitch-Hike (1978) BDRip 720p от NNNB

143 | 18

4.37 ГБ

В этой теме нет новых непрочитанных сообщений. Барри Линдон / Barry Lyndon (1975) BDRip 720p от NNNB | P, A

4 | 1

12.99 ГБ

В этой теме нет новых непрочитанных сообщений. Блондинка в законе 2: Красное, белое и блондинка / Legally Blonde 2: Red, White & Blonde (2003) BDRip 1080p от NNNB | D, P, P2

18 | 3

7.95 ГБ

В этой теме нет новых непрочитанных сообщений. Барри Линдон / Barry Lyndon (1975) BDRip 1080p от NNNB | P, A

40 | 10

13.56 ГБ

В этой теме нет новых непрочитанных сообщений. Красное небо / Red Sky (2014) BDRip 720p от CINEMANIA | L2

284 | 32

5.14 ГБ

В этой теме нет новых непрочитанных сообщений. Аэропорт 1975 / Airport 1975 (1974) BDRip 720p от Koenig

1 | 0

4.51 ГБ




Вы не можете начинать темы
Вы не можете отвечать на сообщения
Вы не можете редактировать свои сообщения
Вы не можете удалять свои сообщения
Вы не можете добавлять вложения

Перейти:  
 Вход
ppkBB3cker v.2 © 2008-2014 @ PPK
[ Time : 0.035s | 16 Queries | GZIP : Off ]

cron