img image001 image001 image001 image001 image001 image001 image001 image001 image001 image001 image001 image001 image001 image001 image001

Planets Sun Sun Sun
Статистика раздачи
Автор: PriZraK | Размер: 8.86 ГБ | Добавлен: 21 дек 2016
Раздают: 4    Качают: 0
Скачать торрент
Скачать торрент
Описание торрента

СообщениеДобавлено: 21 дек 2016 


Информация о фильме
Название: Я не серийный убийца
Оригинальное название: I Am Not a Serial Killer
Год выхода: 2016
Жанр: Триллер
Режиссер: Билли О`Брайэн
В ролях: Кристофер Ллойд, Лора Фрейзер, Макс Рекордс, Карл Джиари, Тони Папенфусс, Брюс Боне, Морган Райссо, Мэтт Рой, Молли Гирен, Люси Лоутон
О фильме:
15-летний Джон Уэйн Кливер живёт с разведённой матерью и старшей сестрой. Он помогает маме работать в морге (его мать патологоанатом). В свободное время он страдает от преследующих его психопатических мыслей, в которых хочет убивать людей. Даже психолог доктор Неблин, к которому Джон ходит еженедельно, не может ему помочь. Вскоре в городе объявляется серийный убийца, который убивает мужчин и вынимает из них органы.

Страна: Ирландия, Великобритания
Студия: Floodland Pictures, Fantastic Films, Level 5 Films
Продолжительность: 01:43:26
Перевод: Многоголосый закадровый (RATTLEBOX), Многоголосый закадровый (СПД)
Файл
Кодек: MPEG4 Video (H264)
Качество: BDRip 1080p | L
Видео: 1920x1080, 9617 Kbps, 23.976fp
Звук:
Аудио 1: AC3, 6 ch, 448 kbps, CBR - Русский (RATTLEBOX)
Аудио 2: AC3, 6 ch, 448 kbps, CBR - Русский (СПД)
Аудио 3: DTS, 6 ch, 1509 kbps, CBR - Английский
Субтитры: Английские
Семпл
Общее
Уникальный идентификатор : 251093782755203117756197668107717906520 (0xBCE6E74C2779C5A096FEB50235631058)
Полное имя : I Am Not a Serial Killer.2016.BDRip.1080p.mkv
Формат : Matroska
Версия формата : Version 2
Размер файла : 8,86 Гбайт
Продолжительность : 1 ч. 43 м.
Общий поток : 12,3 Мбит/сек
Название фильма : I Am Not a Serial Killer 2016 1080p
Дата кодирования : UTC 2016-12-20 20:47:24
Программа кодирования : mkvmerge v4.0.0 ('The Stars were mine') сборка от Jun 6 2010 16:18:42
Библиотека кодирования : libebml v1.0.0 + libmatroska v1.0.0
Видео
Идентификатор : 1
Формат : AVC
Формат/Информация : Advanced Video Codec
Профиль формата : High@L4.1
Параметр CABAC формата : Да
Параметр ReFrames формата : 4 кадра
Идентификатор кодека : V_MPEG4/ISO/AVC
Продолжительность : 1 ч. 43 м.
Битрейт : 9617 Кбит/сек
Ширина : 1920 пикселей
Высота : 1080 пикселей
Соотношение сторон : 16:9
Режим частоты кадров : Постоянный
Частота кадров : 23,976 (24000/1001) кадра/сек
Цветовое пространство : YUV
Субдискретизация насыщенности : 4:2:0
Битовая глубина : 8 бит
Тип развёртки : Прогрессивная
Бит/(Пиксели*Кадры) : 0.193
Размер потока : 6,95 Гбайт (78%)
Библиотека кодирования : x264 core 148 r2705+45 bdacf7a 7mod [8-bit@all X86_64]
Настройки программы : cabac=1 / ref=4 / deblock=1:-3:-3 / analyse=0x3:0x113 / me=umh / subme=11 / psy=1 / fade_compensate=0.00 / psy_rd=1.00:0.05 / mixed_ref=1 / me_range=32 / chroma_me=1 / trellis=2 / 8x8dct=1 / cqm=0 / deadzone=21,11 / fast_pskip=0 / chroma_qp_offset=-2 / threads=32 / lookahead_threads=5 / sliced_threads=0 / nr=0 / decimate=1 / interlaced=0 / bluray_compat=0 / constrained_intra=0 / fgo=0 / bframes=8 / b_pyramid=2 / b_adapt=2 / b_bias=0 / direct=3 / weightb=1 / open_gop=0 / weightp=2 / keyint=250 / keyint_min=23 / scenecut=40 / intra_refresh=0 / rc_lookahead=40 / rc=crf / mbtree=0 / crf=18.7000 / qcomp=0.60 / qpmin=0:0:0 / qpmax=69:69:69 / qpstep=4 / vbv_maxrate=50000 / vbv_bufsize=40000 / crf_max=0.0 / nal_hrd=none / filler=0 / ip_ratio=1.40 / pb_ratio=1.30 / aq=4:0.90 / aq-sensitivity=10.00 / aq-factor=1.00:1.00:1.00 / aq2=0 / aq3=0
Язык : English
Default : Нет
Forced : Нет
Аудио #1
Идентификатор : 2
Формат : AC-3
Формат/Информация : Audio Coding 3
Расширение режима : CM (complete main)
Параметр Endianness формата : Big
Идентификатор кодека : A_AC3
Продолжительность : 1 ч. 43 м.
Вид битрейта : Постоянный
Битрейт : 448 Кбит/сек
Каналы : 6 каналов
Расположение каналов : Front: L C R, Side: L R, LFE
Частота : 48,0 КГц
Частота кадров : 31,250 кадров/сек (1536 spf)
Битовая глубина : 16 бит
Метод сжатия : С потерями
Размер потока : 331 Мбайт (4%)
Заголовок : RATTLEBOX
Язык : Russian
Default : Да
Forced : Да
Аудио #2
Идентификатор : 3
Формат : AC-3
Формат/Информация : Audio Coding 3
Расширение режима : CM (complete main)
Параметр Endianness формата : Big
Идентификатор кодека : A_AC3
Продолжительность : 1 ч. 43 м.
Вид битрейта : Постоянный
Битрейт : 448 Кбит/сек
Каналы : 6 каналов
Расположение каналов : Front: L C R, Side: L R, LFE
Частота : 48,0 КГц
Частота кадров : 31,250 кадров/сек (1536 spf)
Битовая глубина : 16 бит
Метод сжатия : С потерями
Размер потока : 331 Мбайт (4%)
Заголовок : СПД
Язык : Russian
Default : Нет
Forced : Нет
Аудио #3
Идентификатор : 4
Формат : DTS
Формат/Информация : Digital Theater Systems
Режим : 16
Параметр Endianness формата : Big
Идентификатор кодека : A_DTS
Продолжительность : 1 ч. 43 м.
Вид битрейта : Постоянный
Битрейт : 1509 Кбит/сек
Каналы : 6 каналов
Расположение каналов : Front: L C R, Side: L R, LFE
Частота : 48,0 КГц
Частота кадров : 93,750 кадра/сек (512 spf)
Битовая глубина : 24 бит
Метод сжатия : С потерями
Задержка видео : 11 мс.
Размер потока : 1,09 Гбайт (12%)
Язык : English
Default : Нет
Forced : Нет
Текст
Идентификатор : 5
Формат : UTF-8
Идентификатор кодека : S_TEXT/UTF8
Идентификатор кодека/Информация : UTF-8 Plain Text
Язык : English
Default : Нет
Forced : Нет
Меню
00:00:00.000 : en:00:00:00.000
00:08:55.076 : en:00:08:55.076
00:17:41.394 : en:00:17:41.394
00:26:32.049 : en:00:26:32.049
00:35:22.370 : en:00:35:22.370
00:44:05.142 : en:00:44:05.142
00:51:38.554 : en:00:51:38.554
00:59:49.961 : en:00:59:49.961
01:09:26.204 : en:01:09:26.204
01:18:27.161 : en:01:18:27.161
01:27:26.366 : en:01:27:26.366
01:38:34.325 : en:01:38:34.325




   Похожие торренты   Торрент   Размер 
В этой теме нет новых непрочитанных сообщений. Я не серийный убийца / I Am Not a Serial Killer (2016) WEB-DL 1080p | L

298 | 23

4.4 ГБ

В этой теме нет новых непрочитанных сообщений. Я не серийный убийца / I Am Not a Serial Killer (2016) BDRemux 1080p | L

0 | 0

22.63 ГБ

В этой теме нет новых непрочитанных сообщений. Я не серийный убийца / I Am Not a Serial Killer (2016) BDRip от Koenig | L

1 | 0

1.45 ГБ

В этой теме нет новых непрочитанных сообщений. Я не серийный убийца / I Am Not a Serial Killer (2016) HDRip | L1

2978 | 480

1.45 ГБ

В этой теме нет новых непрочитанных сообщений. Я не серийный убийца / I Am Not a Serial Killer (2016) HDRip FreeRutor | L

4 | 0

2.06 ГБ

В этой теме нет новых непрочитанных сообщений. Я не серийный убийца / I Am Not a Serial Killer (2016) WEB-DLRip от AleksSin | L

47 | 5

742.66 МБ

В этой теме нет новых непрочитанных сообщений. Я не серийный убийца / I Am Not a Serial Killer (2016) WEB-DLRip от AleksSin | L

372 | 24

1.45 ГБ




Вы не можете начинать темы
Вы не можете отвечать на сообщения
Вы не можете редактировать свои сообщения
Вы не можете удалять свои сообщения
Вы не можете добавлять вложения

Перейти:  
Для Мосгорсуда, Роскомнадзора и рекламодателей: mosgorsud-torrent[собачка]yandex.ru
 Вход
ppkBB3cker v.2 © 2008-2014 @ PPK
[ Time : 0.044s | 18 Queries | GZIP : Off ]

cron