img image001 image001 image001 image001 image001 image001 image001 image001 image001 image001 image001 image001 image001 image001 image001

Planets Sun Sun Sun
Статистика раздачи
Автор: PriZraK | Размер: 3.93 ГБ | Добавлен: 23 дек 2016
Раздают: 28    Качают: 3
Скачать торрент
Скачать торрент
Описание торрента

СообщениеДобавлено: 23 дек 2016 

Информация о фильме
Название: Инферно
Оригинальное название: Inferno
Год выхода: 2016
Жанр: Боевик, триллер, драма, криминал, детектив
Режиссер: Рон Ховард
В ролях: Том Хэнкс, Бен Фостер, Сидсе Бабетт Кнудсен, Фелисити Джонс, Ирфан Кхан, Омар Си, Ана Улару, Ката Сарбо, Ида Дарвиш, Вольфганг Штегеман
О фильме:
Некий миллиардер в порыве искреннего человеколюбия решает убить половину населения планеты. В своей уютной лаборантской он выводит особый штамм смертельного вируса, способного заразить 95 процентов людей за пару суток. Будучи не в силах упустить красоту момента, он зашифровывает точные координаты пакета с адским варевом в "Инферно" - первой части "Божественной комедии" Данте. Профессору Роберту Лэнгдону с практически отключенным сознанием и стертой памятью предстоит решающий мозговой штурм, от исхода которого зависит судьба миллиардов людей.

Страна: США, Япония, Турция, Венгрия
Студия: Columbia Pictures, Imagine Entertainment, LStar Capital
Продолжительность: 02:01:49
Перевод: Дублированный | Чистый звук
Файл
Качество: WEB-DL 720p
Видео: MPEG-4 AVC, 1280x692, 4041 Kbit/s, 23.976 fps
Звук:
Аудио #01: 48 kHz, AC3, 2.0, 192 Kbps | Дублированный |
Аудио #02: 48 kHz, AC3, 5.1, 384 kbps | Оригинал |

General
Unique ID : 178539835597234527864915321749321863137 (0x865185853C654FFAB29EE26D3A64CFE1)
Complete name : F:VideoInferno.2016.WEB-DL.720p.ExKinoRay.mkv
Format : Matroska
Format version : Version 4 / Version 2
File size : 3.93 GiB
Duration : 2 h 1 min
Overall bit rate : 4 616 kb/s
Movie name : Inferno.2016 build by ***селезень***
Encoded date : UTC 2016-12-22 03:29:52
Writing application : mkvmerge v8.3.0 ('Over the Horizon') 64bit
Writing library : libebml v1.3.1 + libmatroska v1.4.2
Video
ID : 1
Format : AVC
Format/Info : Advanced Video Codec
Format profile : High@L3.1
Format settings, CABAC : No
Format settings, ReFrames : 2 frames
Codec ID : V_MPEG4/ISO/AVC
Duration : 2 h 1 min
Bit rate : 4 041 kb/s
Width : 1 280 pixels
Height : 692 pixels
Display aspect ratio : 1.85:1
Frame rate mode : Constant
Frame rate : 23.976 FPS
Color space : YUV
Chroma subsampling : 4:2:0
Bit depth : 8 bits
Scan type : Progressive
Bits/(Pixel*Frame) : 0.190
Stream size : 3.44 GiB (88%)
Title : Inferno.2016 build by ***селезень***
Language : English
Default : Yes
Forced : No
Color range : Limited
Color primaries : BT.709
Transfer characteristics : BT.709
Matrix coefficients : BT.709
Audio #1
ID : 2
Format : AC-3
Format/Info : Audio Coding 3
Mode extension : CM (complete main)
Format settings, Endianness : Big
Codec ID : A_AC3
Duration : 1 h 59 min
Bit rate mode : Constant
Bit rate : 192 kb/s
Channel(s) : 2 channels
Channel positions : Front: L R
Sampling rate : 48.0 kHz
Frame rate : 31.250 FPS (1536 spf)
Bit depth : 16 bits
Compression mode : Lossy
Stream size : 165 MiB (4%)
Title : Line
Language : Russian
Default : Yes
Forced : No
Audio #2
ID : 3
Format : AC-3
Format/Info : Audio Coding 3
Mode extension : CM (complete main)
Format settings, Endianness : Big
Codec ID : A_AC3
Duration : 2 h 1 min
Bit rate mode : Constant
Bit rate : 384 kb/s
Channel(s) : 6 channels
Channel positions : Front: L C R, Side: L R, LFE
Sampling rate : 48.0 kHz
Frame rate : 31.250 FPS (1536 spf)
Bit depth : 16 bits
Compression mode : Lossy
Stream size : 334 MiB (8%)
Title : Original
Language : English
Default : No
Forced : No
Menu
00:00:00.000 : en:1
00:04:12.544 : en:2
00:12:32.085 : en:3
00:23:42.004 : en:4
00:36:02.160 : en:5
00:51:10.651 : en:6
00:59:15.594 : en:7
01:01:41.906 : en:8
01:07:41.515 : en:9
01:13:24.232 : en:10
01:20:01.254 : en:11
01:24:36.362 : en:12
01:31:24.269 : en:13
01:35:41.109 : en:14
01:40:50.126 : en:15
01:52:26.906 : en:16


Релиз от: Автор релиза:



   Похожие торренты   Торрент   Размер 
В этой теме нет новых непрочитанных сообщений. Инферно / Inferno (2016) WEB-DL 720p от ExKinoRay | Line

129 | 2

4.09 ГБ

В этой теме нет новых непрочитанных сообщений. Инферно / Inferno (2016) WEB-DL 1080p от ExKinoRay | Line

364 | 4

5.04 ГБ

В этой теме нет новых непрочитанных сообщений. Инферно / Inferno (2016) WEB-DL 1080p от ExKinoRay | Line

25 | 1

4.87 ГБ

В этой теме нет новых непрочитанных сообщений. Инферно / Inferno (2016) WEBRip | Line

315 | 6

2.06 ГБ

В этой теме нет новых непрочитанных сообщений. Инферно / Inferno (2016) WEBRip | Line

205 | 6

1.37 ГБ

В этой теме нет новых непрочитанных сообщений. Инферно / Inferno (2016) WEB-DLRip | Line

4966 | 47

1.37 ГБ

В этой теме нет новых непрочитанных сообщений. Инферно / Inferno (2016) WEB-DLRip-AVC | Line

27 | 9

2.15 ГБ




Вы не можете начинать темы
Вы не можете отвечать на сообщения
Вы не можете редактировать свои сообщения
Вы не можете удалять свои сообщения
Вы не можете добавлять вложения

Перейти:  
Для Мосгорсуда, Роскомнадзора и рекламодателей: mosgorsud-torrent[собачка]yandex.ru
 Вход
ppkBB3cker v.2 © 2008-2014 @ PPK
[ Time : 0.063s | 18 Queries | GZIP : Off ]

Торрент трекер RUTOR.IN, Не можете зайти на rutor.org? Какой новый адрес рутор? Какое зеркало рутор? Не работает rutor.org и зеркала? Тогда наш торрент специально для вас. Rutor.in неофициальное зеркало rutor. В случае если у Вас заблокирован rutor или вдруг Вы не можете на него зайти, то Вы без труда сможете скачать бесплатно и без рекламы последние новинки кино, игр, сериалов и прочего у нас, на Rutor.in. Не нужно использовать прокси, чтобы зайти на рутор, достаточно воспользоваться нашим ресурсом. Все новые фильмы, игры, сериалы, книги и музыка за 2013 и 2014 годы через торрент бесплатно. Скачивайте фильмы в хорошем качестве, игры для пк, xbox, playstation без регистрации. У нас вы найдете новые Зарубежные сериалы и Русские сериалы 2013, 2014, 2015 годов. Оставайтесь с нами, качайте любимые фильмы, игры, сериалы, книги и музыку.