img image001 image001 image001 image001 image001 image001 image001 image001 image001 image001 image001 image001 image001 image001 image001

Planets Sun Sun Sun
Статистика раздачи
Автор: PriZraK | Размер: 3.81 ГБ | Добавлен: 03 янв 2017
Раздают: 11    Качают: 4
Скачать торрент
Скачать торрент
Описание торрента

СообщениеДобавлено: 03 янв 2017 

Информация о фильме
Название: Девушка в поезде
Оригинальное название: The Girl on the Train
Год выхода: 2016
Жанр: Триллер, детектив
Режиссер: Тейт Тейлор
В ролях: Эмили Блант, Хейли Беннетт, Ребекка Фергюсон (II), Джастин Теру, Люк Эванс, Эдгар Рамирес, Лора Припон, Эллисон Джэнни, Даррен Голдштейн, Лиза Кудроу, Клета Элейн Эллингтон, Лана Янг, Рэйчел Кристофер, Грегори Морли, Джон Норрис, Фрэнк Анелло, Сергей Ашуров, Сидни Байц, Марко Кака

О фильме:
Каждый день поезд проносит Рэйчел мимо очаровательного коттеджа, где живет идеальная на первый взгляд пара. Но однажды идиллия разрушится — прекрасная незнакомка бесследно исчезнет. Рэйчел окажется втянута в весьма запутанную историю, ведь только она видела из окна то, что было скрыто ото всех.


Страна: США
Студия: Amblin Entertainment, DreamWorks SKG, Marc Platt Productions
Продолжительность: 01:52:05
Перевод: Дублированный | iTunes

Файл
Качество: WEB-DL 720p
Видео: MPEG-4 AVC, 1280x688, 4093 Kbit/s, 23.976 fps
Звук:
Аудио #01: 48 kHz, AC3, 5.1, 384 Kbps | Дублированный | iTunes |
Аудио #02: 48 kHz, AC3, 5.1, 384 kbps | Оригинал |
Субтитры: Английские

Общее
Уникальный идентификатор : 213806223313336983996432929839107630149 (0xA0D994ADD6678342B198245AEA1D6445)
Полное имя : F:VideoThe.Girl.on.the.Train.2016.WEB-DL.720p.ExKinoRay.mkv
Формат : Matroska
Версия формата : Version 4 / Version 2
Размер файла : 3,81 Гбайт
Продолжительность : 1 ч. 52 м.
Общий поток : 4863 Кбит/сек
Название фильма : The.Girl.on.the.Train.2016 ***селезень***
Дата кодирования : UTC 2017-01-03 11:55:03
Программа кодирования : mkvmerge v8.3.0 ('Over the Horizon') 64bit
Библиотека кодирования : libebml v1.3.1 + libmatroska v1.4.2

Видео
Идентификатор : 1
Формат : AVC
Формат/Информация : Advanced Video Codec
Профиль формата : High@L3.1
Параметр CABAC формата : Нет
Параметр ReFrames формата : 2 кадра
Идентификатор кодека : V_MPEG4/ISO/AVC
Продолжительность : 1 ч. 52 м.
Битрейт : 4093 Кбит/сек
Ширина : 1280 пикселей
Высота : 688 пикселей
Соотношение сторон : 1,85:1
Режим частоты кадров : Постоянный
Частота кадров : 23,976 (23976/1000) кадра/сек
Цветовое пространство : YUV
Субдискретизация насыщенности : 4:2:0
Битовая глубина : 8 бит
Тип развёртки : Прогрессивная
Бит/(Пиксели*Кадры) : 0.194
Размер потока : 3,20 Гбайт (84%)
Заголовок : The.Girl.on.the.Train.2016 ***селезень***
Язык : English
Default : Да
Forced : Нет
Цветовой диапазон : Limited
Основные цвета : BT.709
Характеристики трансфера : BT.709
Коэффициенты матрицы : BT.709

Аудио #1
Идентификатор : 2
Формат : AC-3
Формат/Информация : Audio Coding 3
Расширение режима : CM (complete main)
Параметр Endianness формата : Big
Идентификатор кодека : A_AC3
Продолжительность : 1 ч. 52 м.
Вид битрейта : Постоянный
Битрейт : 384 Кбит/сек
Каналы : 6 каналов
Расположение каналов : Front: L C R, Side: L R, LFE
Частота : 48,0 КГц
Частота кадров : 31,250 кадров/сек (1536 spf)
Битовая глубина : 16 бит
Метод сжатия : С потерями
Размер потока : 308 Мбайт (8%)
Заголовок : Dub [iTunes]
Язык : Russian
Default : Да
Forced : Нет

Аудио #2
Идентификатор : 3
Формат : AC-3
Формат/Информация : Audio Coding 3
Расширение режима : CM (complete main)
Параметр Endianness формата : Big
Идентификатор кодека : A_AC3
Продолжительность : 1 ч. 52 м.
Вид битрейта : Постоянный
Битрейт : 384 Кбит/сек
Каналы : 6 каналов
Расположение каналов : Front: L C R, Side: L R, LFE
Частота : 48,0 КГц
Частота кадров : 31,250 кадров/сек (1536 spf)
Битовая глубина : 16 бит
Метод сжатия : С потерями
Размер потока : 308 Мбайт (8%)
Заголовок : Original
Язык : English
Default : Нет
Forced : Нет

Текст
Идентификатор : 4
Формат : UTF-8
Идентификатор кодека : S_TEXT/UTF8
Идентификатор кодека/Информация : UTF-8 Plain Text
Продолжительность : 1 ч. 44 м.
Битрейт : 48 бит/сек
Count of elements : 1334
Размер потока : 37,3 Кбайт (0%)
Заголовок : Full
Язык : English
Default : Нет
Forced : Нет

Меню
00:00:00.000 : en:1
00:06:02.779 : en:2
00:09:30.903 : en:3
00:18:16.970 : en:4
00:25:27.150 : en:5
00:32:05.506 : en:6
00:37:05.973 : en:7
00:44:53.315 : en:8
00:49:23.460 : en:9
00:55:08.012 : en:10
00:59:37.031 : en:11
01:03:35.811 : en:12
01:09:26.786 : en:13
01:14:37.429 : en:14
01:19:09.701 : en:15
01:23:45.727 : en:16
01:28:08.489 : en:17
01:33:50.455 : en:18
01:38:55.551 : en:19
01:45:56.179 : en:20




Релиз от: Автор релиза:



   Похожие торренты   Торрент   Размер 
В этой теме нет новых непрочитанных сообщений. Девушка в поезде / The Girl on the Train (2016) BDRip 720p от ExKinoRay | iTunes

51 | 3

4.91 ГБ

В этой теме нет новых непрочитанных сообщений. Девушка в поезде / The Girl on the Train (2016) BDRip от ExKinoRay | iTunes

31 | 6

1.41 ГБ

В этой теме нет новых непрочитанных сообщений. Девушка в поезде / The Girl on the Train (2016) BDRip 1080p от ExKinoRay | iTunes

5 | 3

10.78 ГБ

В этой теме нет новых непрочитанных сообщений. Девушка в поезде / The Girl on the Train (2016) BDRemux 1080p от ExKinoRay | iTunes

14 | 3

28.59 ГБ

В этой теме нет новых непрочитанных сообщений. Девушка в поезде / The Girl on the Train (2016) BDRip 720p от ExKinoRay | Лицензия

82 | 13

5.56 ГБ

В этой теме нет новых непрочитанных сообщений. Девушка в поезде / The Girl on the Train (2016) BDRip 720p от Scarabey | iTunes

238 | 60

4.69 ГБ

В этой теме нет новых непрочитанных сообщений. Девушка в поезде / The Girl on the Train (2016) WEB-DL 1080p | iTunes

116 | 8

4.38 ГБ




Вы не можете начинать темы
Вы не можете отвечать на сообщения
Вы не можете редактировать свои сообщения
Вы не можете удалять свои сообщения
Вы не можете добавлять вложения

Перейти:  
Для Мосгорсуда, Роскомнадзора и рекламодателей: mosgorsud-torrent[собачка]yandex.ru
 Вход
ppkBB3cker v.2 © 2008-2014 @ PPK
[ Time : 0.048s | 19 Queries | GZIP : Off ]

cron