img image001 image001 image001 image001 image001 image001 image001 image001 image001 image001 image001 image001 image001 image001 image001 image001

Planets Sun Sun Sun
Статистика раздачи
Автор: PriZraK | Размер: 4.06 ГБ | Добавлен: 03 янв 2017
Раздают: 3    Качают: 10
Скачать торрент
Скачать торрент
Описание торрента

СообщениеДобавлено: 03 янв 2017 

«Правдивая история о чудесном спасении»



Год выпуска: 2016
Производство: США / Warner Bros. Pictures, Village Roadshow Pictures, RatPac Entertainment
Жанр: Драма, биография

Режиссер: Клинт Иствуд
Продюсеры: Клинт Иствуд, Фрэнк Маршалл, Брюс Берман
Актеры: Том Хэнкс, Аарон Экхарт, Валери Махаффей, Делфи Хэррингтон, Майк О`Мэлли, Джейми Шеридан, Анна Ганн, Холт МакКэллани, Ахмед Хуссэйн, Лора Линни

Описание:
Произошедшее 15 января 2009 года назовут «Чудом на Гудзоне». В тот день капитан рейса 1549 Чесли Салленбергер совершил аварийную посадку самолета A320 на холодные воды реки Гудзон в Нью-Йорке. При этом никто из находившихся на борту 155 человек не пострадал. Но, несмотря на все почести со стороны общественности и СМИ, было начато расследование, которое угрожало профессиональной репутации и многолетней карьере капитана Салли.

Перевод: Дублированный
Субтитры: Английские, русские

Дата мировой премьеры: 2 сентября 2016
Дата российской премьеры: 8 сентября 2016, «Каро-Премьер»


Продолжительность: 01:35:46
Качество видео: DVD5

Видео: MPEG-2, 720x480@853x480 (NTSC 16:9), ~5900 Кбит/сек
Аудио 1: AC3 5.1, 384 Кбит/сек [Английский - оригинал]
Аудио 2: AC3 5.1, 448 Кбит/сек [Русский - дублированный]

Title: Sully (2016) DVD5 NTSC
Size: 4.06 Gb ( 4 259 394,00 KBytes ) - DVD-5
Enabled regions: 1, 2, 3, 4, 5, 6, 7, 8

VTS_01 :
Play Length: 01:35:46+00:00:01+{00:00:00}
Video: NTSC 16:9 (720x480) VBR, Auto Letterboxed
Audio:
English (Dolby AC3, 6 ch)
Russian (Dolby AC3, 6 ch)
Subtitles:
English
Russian
Russian

* Menus Information *

VIDEO_TS Menu
Video:
NTSC 16:9 (720x480) VBR
Auto Letterboxed
Language Unit :
Title Menu

VTS_01 Menu
Video:
NTSC 16:9 (720x480) VBR
Auto Pan&Scan
Audio:
Not specified (Dolby AC3, 2 ch)
English Language Unit :
Root Menu
Общее
Полное имя : G:ВидеоSully (2016) DVD5 NTSCVIDEO_TSVTS_01_2.VOB
Формат : MPEG-PS
Размер файла : 1024 Мбайт
Продолжительность : 20 м.
Режим общего битрейта : Переменный
Общий поток : 6911 Кбит/сек

Видео
Идентификатор : 224 (0xE0)
Формат : MPEG Video
Версия формата : Version 2
Профиль формата : Main@Main
Параметр BVOP формата : Да
Параметр матрицы формата : Выборочная
Параметр GOP формата : Variable
Продолжительность : 20 м.
Вид битрейта : Переменный
Битрейт : 5941 Кбит/сек
Максимальный битрейт : 7528 Кбит/сек
Ширина : 720 пикселей
Высота : 480 пикселей
Соотношение сторон : 16:9
Частота кадров : 23,976 (24000/1001) кадра/сек
Цветовое пространство : YUV
Субдискретизация насыщенности : 4:2:0
Битовая глубина : 8 бит
Тип развёртки : Прогрессивная
Порядок развёртки : 2:3 Pulldown
Метод сжатия : С потерями
Бит/(Пиксели*Кадры) : 0.717
Временной код первого кадра : 00:24:12:01
Оригинал временного кода : Group of pictures header
GOP, открыто/закрыто : Открыто
Размер потока : 880 Мбайт (86%)

Аудио #1
Идентификатор : 189 (0xBD)-128 (0x80)
Формат : AC-3
Формат/Информация : Audio Coding 3
Расширение режима : CM (complete main)
Параметр Endianness формата : Big
Режим смешивания : DVD-Video
Продолжительность : 20 м.
Вид битрейта : Постоянный
Битрейт : 384 Кбит/сек
Каналы : 6 каналов
Расположение каналов : Front: L C R, Side: L R, LFE
Частота : 48,0 КГц
Частота кадров : 31,250 кадров/сек (1536 spf)
Метод сжатия : С потерями
Задержка видео : -407 мс.
Размер потока : 56,9 Мбайт (6%)

Аудио #2
Идентификатор : 189 (0xBD)-130 (0x82)
Формат : AC-3
Формат/Информация : Audio Coding 3
Расширение режима : CM (complete main)
Параметр Endianness формата : Big
Режим смешивания : DVD-Video
Продолжительность : 20 м.
Вид битрейта : Постоянный
Битрейт : 448 Кбит/сек
Каналы : 6 каналов
Расположение каналов : Front: L C R, Side: L R, LFE
Частота : 48,0 КГц
Частота кадров : 31,250 кадров/сек (1536 spf)
Метод сжатия : С потерями
Задержка видео : -375 мс.
Размер потока : 66,4 Мбайт (6%)

Текст #1
Идентификатор : 189 (0xBD)-32 (0x20)
Формат : RLE
Формат/Информация : Run-length encoding
Режим смешивания : DVD-Video
Продолжительность : 20 м.
Задержка видео : 5 с. 756 мс.

Текст #2
Идентификатор : 189 (0xBD)-33 (0x21)
Формат : RLE
Формат/Информация : Run-length encoding
Режим смешивания : DVD-Video
Продолжительность : 20 м.
Задержка видео : 5 с. 489 мс.

Меню
Продолжительность : 20 м.

Исходник: Чудо на Гудзоне / Sully (2016) DVD9 | Custom
Удалены: доп материалы, описательная звуковая дорожка (в меню кнопки затёрты).
Команды диска переписаны заново, оставлен один VTS.
Видео сжато на 16,0%
Меню: статичное, недействующие кнопки затерты и закрыты.
Обработка и сжатие: DVD ReMake Pro + DVD Rebuilder + CCE SP2 [7 проходов] + Работа с меню (Adobe PhotoShop и MuxMan).

Скриншоты:



   Похожие торренты   Торрент   Размер 
В этой теме нет новых непрочитанных сообщений. Чудо на Гудзоне / Sully (2016) WEBRip | Line

31 | 5

1.37 ГБ

В этой теме нет новых непрочитанных сообщений. Чудо на Гудзоне / Sully (2016) WEBRip | Звук с TS

15 | 6

1.37 ГБ

В этой теме нет новых непрочитанных сообщений. Чудо на Гудзоне / Sully (2016) DVD9 | Custom

6 | 8

5.6 ГБ

В этой теме нет новых непрочитанных сообщений. Чудо на Гудзоне / Sully (2016) BDRip от HQ-ViDEO

7 | 7

1.45 ГБ

В этой теме нет новых непрочитанных сообщений. Чудо на Гудзоне / Sully (2016) HDRip-AVC | Line

0 | 4

1.37 ГБ

В этой теме нет новых непрочитанных сообщений. Чудо на Гудзоне / Sully (2016) BDRip-AVC | Лицензия

46 | 12

744.68 МБ

В этой теме нет новых непрочитанных сообщений. Чудо на Гудзоне / Sully (2016) HDRip | Line

351 | 25

1.47 ГБ




Вы не можете начинать темы
Вы не можете отвечать на сообщения
Вы не можете редактировать свои сообщения
Вы не можете удалять свои сообщения
Вы не можете добавлять вложения

Перейти:  
 Вход
ppkBB3cker v.2 © 2008-2014 @ PPK
[ Time : 0.108s | 18 Queries | GZIP : Off ]

cron