img image001 image001 image001 image001 image001 image001 image001 image001 image001 image001 image001 image001 image001 image001 image001

Planets Sun Sun Sun
Статистика раздачи
Автор: PriZraK | Размер: 5.14 ГБ | Добавлен: 05 янв 2017
Раздают: 36    Качают: 4
Скачать торрент
Скачать торрент
Описание торрента

СообщениеДобавлено: 05 янв 2017 

Информация о фильме
Название: Инферно
Оригинальное название: Inferno
Год выхода: 2016
Жанр: Боевик, триллер, драма, криминал, детектив
Режиссер: Рон Ховард
В ролях: Том Хэнкс, Бен Фостер, Сидсе Бабетт Кнудсен, Фелисити Джонс, Ирфан Кхан, Омар Си, Ана Улару, Ката Сарбо, Ида Дарвиш, Вольфганг Штегеман

О фильме:
Некий миллиардер в порыве искреннего человеколюбия решает убить половину населения планеты. В своей уютной лаборантской он выводит особый штамм смертельного вируса, способного заразить 95 процентов людей за пару суток. Будучи не в силах упустить красоту момента, он зашифровывает точные координаты пакета с адским варевом в "Инферно" - первой части "Божественной комедии" Данте. Профессору Роберту Лэнгдону с практически отключенным сознанием и стертой памятью предстоит решающий мозговой штурм, от исхода которого зависит судьба миллиардов людей.


Страна: США, Япония, Турция, Венгрия
Студия: Columbia Pictures, Imagine Entertainment, LStar Capital
Продолжительность: 02:01:49
Перевод: Дублированный | iTunes
Файл
Качество: WEB-DL 1080p
Видео: MPEG-4 AVC, 1916x1036, 5149 Kbit/s, 23.976 fps
Звук:
Аудио #01: 48 kHz, AC3, 5.1, 384 Kbps | Дублированный |
Аудио #02: 48 kHz, AAC, 2.0, 126 Kbps | Дублированный |
Аудио #03: 48 kHz, AC3, 5.1, 384 kbps | Оригинал |
Субтитры: Русские (forced), английские

Общее
Уникальный идентификатор : 207180213044058313158365579091880611499 (0x9BDD75267E3AEE109F6D133B60328EAB)
Полное имя : F:Video1Inferno.2016.WEB-DL.1080p.ExKinoRay.mkv
Формат : Matroska
Версия формата : Version 4 / Version 2
Размер файла : 5,14 Гбайт
Продолжительность : 2 ч. 1 м.
Общий поток : 6044 Кбит/сек
Название фильма : Inferno.2016 build by ***селезень***
Дата кодирования : UTC 2017-01-04 19:28:30
Программа кодирования : mkvmerge v8.3.0 ('Over the Horizon') 64bit
Библиотека кодирования : libebml v1.3.1 + libmatroska v1.4.2

Видео
Идентификатор : 1
Формат : AVC
Формат/Информация : Advanced Video Codec
Профиль формата : High@L4
Параметр CABAC формата : Да
Параметр ReFrames формата : 4 кадра
Идентификатор кодека : V_MPEG4/ISO/AVC
Продолжительность : 2 ч. 1 м.
Битрейт : 5149 Кбит/сек
Ширина : 1916 пикселей
Высота : 1036 пикселей
Соотношение сторон : 1,85:1
Режим частоты кадров : Постоянный
Частота кадров : 23,976 кадра/сек
Цветовое пространство : YUV
Субдискретизация насыщенности : 4:2:0
Битовая глубина : 8 бит
Тип развёртки : Прогрессивная
Бит/(Пиксели*Кадры) : 0.108
Размер потока : 4,38 Гбайт (85%)
Заголовок : Inferno.2016 build by ***селезень***
Язык : English
Default : Да
Forced : Нет
Цветовой диапазон : Limited
Основные цвета : BT.709
Характеристики трансфера : BT.709
Коэффициенты матрицы : BT.709

Аудио #1
Идентификатор : 2
Формат : AC-3
Формат/Информация : Audio Coding 3
Расширение режима : CM (complete main)
Параметр Endianness формата : Big
Идентификатор кодека : A_AC3
Продолжительность : 2 ч. 1 м.
Вид битрейта : Постоянный
Битрейт : 384 Кбит/сек
Каналы : 6 каналов
Расположение каналов : Front: L C R, Side: L R, LFE
Частота : 48,0 КГц
Частота кадров : 31,250 кадров/сек (1536 spf)
Битовая глубина : 16 бит
Метод сжатия : С потерями
Размер потока : 334 Мбайт (6%)
Заголовок : iTunes
Язык : Russian
Default : Да
Forced : Нет

Аудио #2
Идентификатор : 3
Формат : AAC
Формат/Информация : Advanced Audio Codec
Профиль формата : LC
Идентификатор кодека : A_AAC
Продолжительность : 2 ч. 1 м.
Битрейт : 126 Кбит/сек
Каналы : 2 канала
Расположение каналов : Front: L R
Частота : 44,1 КГц
Частота кадров : 43,066 кадра/сек (1024 spf)
Метод сжатия : С потерями
Размер потока : 110 Мбайт (2%)
Заголовок : iTunes
Язык : Ukrainian
Default : Нет
Forced : Нет

Аудио #3
Идентификатор : 4
Формат : AC-3
Формат/Информация : Audio Coding 3
Расширение режима : CM (complete main)
Параметр Endianness формата : Big
Идентификатор кодека : A_AC3
Продолжительность : 2 ч. 1 м.
Вид битрейта : Постоянный
Битрейт : 384 Кбит/сек
Каналы : 6 каналов
Расположение каналов : Front: L C R, Side: L R, LFE
Частота : 48,0 КГц
Частота кадров : 31,250 кадров/сек (1536 spf)
Битовая глубина : 16 бит
Метод сжатия : С потерями
Размер потока : 334 Мбайт (6%)
Заголовок : Original
Язык : English
Default : Нет
Forced : Нет

Текст #1
Идентификатор : 5
Формат : UTF-8
Идентификатор кодека : S_TEXT/UTF8
Идентификатор кодека/Информация : UTF-8 Plain Text
Продолжительность : 57 м. 24 с.
Битрейт : 4 бит/сек
Count of elements : 29
Размер потока : 1,78 Кбайт (0%)
Заголовок : Forced
Язык : Russian
Default : Да
Forced : Нет

Текст #2
Идентификатор : 6
Формат : UTF-8
Идентификатор кодека : S_TEXT/UTF8
Идентификатор кодека/Информация : UTF-8 Plain Text
Продолжительность : 1 ч. 55 м.
Битрейт : 53 бит/сек
Count of elements : 1358
Размер потока : 45,1 Кбайт (0%)
Заголовок : Full
Язык : English
Default : Нет
Forced : Нет

Меню
00:00:00.000 : en:1
00:04:12.544 : en:2
00:12:32.085 : en:3
00:23:42.003 : en:4
00:36:02.159 : en:5
00:51:10.650 : en:6
00:59:15.593 : en:7
01:01:41.904 : en:8
01:07:41.512 : en:9
01:13:24.229 : en:10
01:20:01.250 : en:11
01:24:36.358 : en:12
01:31:24.265 : en:13
01:35:41.105 : en:14
01:40:50.121 : en:15
01:52:26.900 : en:16




Релиз от: Автор релиза:



   Похожие торренты   Торрент   Размер 
В этой теме нет новых непрочитанных сообщений. Инферно / Inferno (2016) BDRip 1080p от ExKinoRay | iTunes

12 | 2

14.92 ГБ

В этой теме нет новых непрочитанных сообщений. Инферно / Inferno (2016) BDRip от ExKinoRay | iTunes

118 | 9

1.46 ГБ

В этой теме нет новых непрочитанных сообщений. Инферно / Inferno (2016) BDRip от ExKinoRay | iTunes

76 | 4

2.13 ГБ

В этой теме нет новых непрочитанных сообщений. Инферно / Inferno (2016) WEB-DLRip-AVC от ExKinoRay | iTunes

19 | 4

3.03 ГБ

В этой теме нет новых непрочитанных сообщений. Инферно / Inferno (2016) BDRip 720p от ExKinoRay | iTunes

11 | 3

10.18 ГБ

В этой теме нет новых непрочитанных сообщений. Инферно / Inferno (2016) WEB-DL 1080p от ExKinoRay | Line

364 | 4

5.04 ГБ

В этой теме нет новых непрочитанных сообщений. Инферно / Inferno (2016) WEB-DL 1080p от ExKinoRay | Line

25 | 1

4.87 ГБ




Вы не можете начинать темы
Вы не можете отвечать на сообщения
Вы не можете редактировать свои сообщения
Вы не можете удалять свои сообщения
Вы не можете добавлять вложения

Перейти:  
Для Мосгорсуда, Роскомнадзора и рекламодателей: mosgorsud-torrent[собачка]yandex.ru
 Вход
ppkBB3cker v.2 © 2008-2014 @ PPK
[ Time : 0.046s | 17 Queries | GZIP : Off ]

Торрент трекер RUTOR.IN, Не можете зайти на rutor.org? Какой новый адрес рутор? Какое зеркало рутор? Не работает rutor.org и зеркала? Тогда наш торрент специально для вас. Rutor.in неофициальное зеркало rutor. В случае если у Вас заблокирован rutor или вдруг Вы не можете на него зайти, то Вы без труда сможете скачать бесплатно и без рекламы последние новинки кино, игр, сериалов и прочего у нас, на Rutor.in. Не нужно использовать прокси, чтобы зайти на рутор, достаточно воспользоваться нашим ресурсом. Все новые фильмы, игры, сериалы, книги и музыка за 2013 и 2014 годы через торрент бесплатно. Скачивайте фильмы в хорошем качестве, игры для пк, xbox, playstation без регистрации. У нас вы найдете новые Зарубежные сериалы и Русские сериалы 2013, 2014, 2015 годов. Оставайтесь с нами, качайте любимые фильмы, игры, сериалы, книги и музыку.
cron